GCW Effy’s Big Brunch 2020 10 10 Full Show Online

Watch GCW Effy’s Big Brunch 2020 10 10 720p DX-TV

 

GCW Effy’s Big Brunch 2020

 

 CW Effy's Big Brunch 2020

GCW Effy’s Big Brunch 2020 10 10 Full Show Online

 

Rescheduling the Collective to Indianapolis, however, was the saving grace. Sure, we wouldn’t have that Tampa springtime vibe, but so what? Who says we can’t generate that same energy in the middle of October? Knowing that we’d have the Big Gay Brunch somehow makes this year that much less of a bust for me. Take everything, but please don’t take my EFFY.

You may be up all night after For the Culture, but please get up early enough to catch EFFY’s Big Gay Brunch on FITE.tv at 11 am EST on FITE.tv. You can rest assured that this is going to start your Saturday off in the wildest, gayest, and most wonderful manner. Just take a look at what’s up for the show:

 

CW Effy’s Big Brunch 2020

Collective 2020 Preview: GCW presents EFFY’s Big Gay Brunch

For those who may be wondering, yes I will be attending the Brunch in satin sleeping cap and pajama bottoms. Look for me!

 

Note : updated all links and watching online 

with full show time

 

Complete name : GCW Effy’s Big Brunch 2020 10 10 720p WEB h264 DX-TV.mp4
Format : MPEG-4
Format profile : Base Media
Codec ID : isom
File size : 1.91 GiB
Duration : 2 h 14 min
Overall bit rate : 2 031 kb/s
Movie name : index.m3u8
Writing application : Lavf57

CW Effy’s Big Brunch 2020

Video
ID : 1
Format : AVC
Duration : 2 h 14 min
Bit rate : 1 925 kb/s
Width : 1 280 pixels
Height : 720 pixels
Display aspect ratio : 16:9
Frame rate mode : Variable
Frame rate : 29.970 (29970/1000) FPS 
Color space : YUV
Chroma subsampling : 4:2:0
Bit depth : 8 bits
Scan type : Progressive
Bits/(Pixel*Frame) : 0.070
Stream size : 1.81 GiB (95%)
Codec configuration box : avcC

CW Effy’s Big Brunch 2020

Audio
ID : 2
Format : AAC LC
Format/Info : Advanced Audio
Codec ID : mp4a-40-2
Duration : 2 h 14 min
Bit rate mode : Constant
Bit rate : 96.0 kb/s
Channel(s) : 2 channels
Channel layout : L R
Sampling rate : 48.0 kHz
Frame rate : 46.875 FPS (1024 SPF)
Compression mode : Lossy
Stream size : 92.4 MiB (5%)
Default : Yes
Alternate group : 1

 

 

 

GCW Effy’s Big Brunch 2020 10 10 Full Show Online

 

Watch online

 

 

 

Server 1

 

 

 

 

watch now

 

 

 

 

Server-2

 

 

 

watch now

 

 

 

 

Server-3

 

 

 

GCW Effy's Big Brunch 2020

 

 

 

 

Uploaded By Site DX-TV.com

 

 

 

 

Download Free Links with normal and high Speed [ more 14 hosts ]  

 

 

 

http://shrt10.com/qIVOSe
http://shrt10.com/H0KoB
http://shrt10.com/iBFKTpSg
http://shrt10.com/vFjvgNB
http://shrt10.com/TpDga3E5
http://shrt10.com/XMb2oqX
http://shrt10.com/pVKMA
http://shrt10.com/YMF5OXf8
http://shrt10.com/EFD5gl

 

 

 

Download Links with premium High Speed   

 

 

 

dropapk.to

 

 

 

nitroflare.com

 

 

 

rapidgator.net

 

 

 

uploaded.net

 

 

 

uploadgig.com

 

 

 

 

 

dx-tv.com

 

urlfree.net

Leave a Reply

Your email address will not be published. Required fields are marked *

This site uses Akismet to reduce spam. Learn how your comment data is processed.