G1 CLIMAX 30 Day 7 2020 09 30 NJPW Full Show Online

Watch G1 CLIMAX 30 Day 7 2020 09 30 NJPW Full Show Online DX-TV

 

G1 CLIMAX 30 Day 7

 

 G1 CLIMAX 30 Day 7
 


 

 

G1 CLIMAX 30 Day 7 2020 09 30 NJPW Full Show Online

 

Minoru Suzuki (2-1) vs Yujiro Takahashi (0-3)

Overall singles record: 3-0 Suzuki (G1s 2012, 2013, 2014)

G1 CLIMAX 30 Day 7

The form book is not kind to Yujiro Takahashi when it comes to the first group match of the evening. With nobody in the modern framework of the G1 making the finals with anything less than 12 points, Takahashi might not be on the bubble in a mathematical sense, but a 0-3 record effectively puts him at a must win scenario against a motivated Minoru Suzuki. Still smarting from his loss to Taichi in Sapporo, Suzuki took great sadistic pleasure in putting away Jeff Cobb in Kobe before promising that he would take G1 Climax 30 for himself; he is overwhelmingly the favourite to move two points closer to that goal, having already beaten Takahashi thrice in successive G1s between 2012 and 2014. 

G1 CLIMAX 30 Day 7

Is the match a write-off for the Tokyo Pimp then? Yujiro tends to find his ways, and to discount him would be dangerous indeed. In Korakuen Hall six years ago, it was against Tomohiro Ishii that Yujiro became NEVER Openweight Champion for the one and only time. Could he score a significant win over the current NEVER champ in the same venue in 2020?

Yota Tsuji (2-2 this tour) vs Yuya Uemura (2-2 this tour)

Overall singles record: 9-6-21 Tsuji (1-1 this tour)

G1 CLIMAX 30 Day 7

The night’s action kicks off with the epic war between three Young Lions enter its middle act. Yota Tsuji was left licking his wounds after Gabriel Kidd shut the confident Young Lion’s mouth in Kobe, a spectacular double arm suplex giving the Briton his first win over the larger man. Uemura too has been able to score victory over Tsuji, on night one in Osaka, but the former American football player was quick to right that perceived wrong, tapping Uemura out in Hokkaido last week to settle the score. As all three men continue to exchange wins, can any one Young Lion set themselves apart in the middle leg of the G1?

 

 

Complete name : NJPW G1 CLIMAX 30 Day 7 2020 09 30 WEB H264 DX-TV.mp4
Format : MPEG-4
Format profile : Base Media
Codec ID : isom
File size : 1.92 GiB
Duration : 2 h 21 min
Overall bit rate : 1 934 kb/s
Writing application : Lavf58.25.100

G1 CLIMAX 30 Day 7

Video
ID : 1
Format : AVC
Duration : 2 h 21 min
Bit rate : 1 823 kb/s
Width : 960 pixels
Height : 540 pixels
Display aspect ratio : 16:9
Frame rate mode : Variable
Frame rate : 30.000 FPS
Color space : YUV
Chroma : 4:2:0
Bit depth : 8 bits
Scan type : Progressive
Bits/(Pixel*Frame) : 0.117
Stream size : 1.81 GiB (94%)
Color range : Limited
Color primaries : BT.601 PAL
Transfer characteristics : BT.601
Matrix coefficients : BT.470
Codec configuration box : avcC

G1 CLIMAX 30 Day 7

Audio
ID : 2
Format : AAC LC
Format/Info : Advanced Audio
Codec ID : mp4a-40-2
Duration : 2 h 21 min
Bit rate mode : Constant
Bit rate : 99.9 kb/s
Channel(s) : 2 channels
Channel layout : L R
Sampling rate : 44.1 kHz
Frame rate : 43.066 FPS
Compression mode : Lossy
Stream size : 101 MiB (5%)
Default : Yes
Alternate group : 1

 

 

 

G1 CLIMAX 30 Day 7 2020 09 30 NJPW Full Show Online

 

 

 

 

Watch online

 

 

 

 

 

Server 1

 

 

 

 

watch now

 

 

 

 

Server-2

 

 

 

watch now

 

 

 

 

Server-3

 

 

 

G1 CLIMAX 30 Day 7

 

 

 

 

Uploaded By Site DX-TV.com

 

 

 

 

Download Free Links with normal and high Speed [ more 15 hosts ]  

 

 

 

 

http://shrt10.com/SJyE0P
http://shrt10.com/nFX77
http://shrt10.com/C7wKH
http://shrt10.com/Xp35KYQw
http://shrt10.com/Zg3OLYl
http://shrt10.com/HU4xB
http://shrt10.com/3vgyd
http://shrt10.com/ZfpK7HLy9
http://shrt10.com/otInqx
http://shrt10.com/a8F5apJ
http://shrt10.com/ff9AI
http://shrt10.com/zgSvIuNGx
http://shrt10.com/Yrwn1

 

 

 

Download Links with premium High Speed   

 

 

 

 

 

Keep2Share

 

 

 

nitroflare.com

 

 

 

rapidgator.net

 

 

 

uploaded.net

 

 

 

uploadgig.com

 

 

 

 

 

dx-tv.com

 

urlfree.net

Leave a Reply

Your email address will not be published. Required fields are marked *

This site uses Akismet to reduce spam. Learn how your comment data is processed.