G1 CLIMAX 30 Day 6 2020 NJPW Full Show Online

Watch G1 CLIMAX 30 Day 6 2020 NJPW Full Show Online DX-TV

 

G1 CLIMAX 30

 

 G1 CLIMAX 30

G1 CLIMAX 30 Day 6 2020 NJPW Full Show Online

 

Complete name : NJPW G1 CLIMAX 30 Day 6 2020 09 29 WEB H264 DX-TV.mp4
Format : MPEG-4
Format profile : Base Media
Codec ID : isom
File size : 2.00 GiB
Duration : 2 h 28 min
Overall bit rate : 1 930 kb/s
Writing application : Lavf58.25.100

G1 CLIMAX 30

Video
ID : 1
Format : AVC
Duration : 2 h 28 min
Bit rate : 1 819 kb/s
Width : 960 pixels
Height : 540 pixels
Display aspect ratio : 16:9
Frame rate mode : Variable
Frame rate : 30.000 FPS
Minimum rate : 14.925 FPS
Color space : YUV
Chroma subsampling : 4:2:0
Bit depth : 8 bits
Scan type : Progressive
Bits/(Pixel*Frame) : 0.117
Stream size : 1.88 GiB (94%)
Color range : Limited
Color primaries : BT.601 PAL
Transfer characteristics : BT.601
Matrix coefficients : BT.470 System B/G
Codec configuration box : avcC

G1 CLIMAX 30

Audio
ID : 2
Format : AAC LC
Format/Info : Advanced Audio
Codec ID : mp4a-40-2
Duration : 2 h 28 min
Bit rate mode : Constant
Bit rate : 100 kb/s
Channel(s) : 2 channels
Channel layout : L R
Sampling rate : 44.1 kHz
Frame rate : 43.066 FPS (1024 SPF)
Compression mode : Lossy
Stream size : 106 MiB (5%)
Default : Yes
Alternate group : 1

G1 CLIMAX 30

Toru Yano (2-0) vs EVIL (1-1)

Overall singles record: 2-0 EVIL (G1 2016, 2018)

 

Some unexpected truths to bring into Toru Yano’s third G1 Climax 30 match: this is the best start .

he has ever had to a G1 in his career, and his 2-0 comes with wins over the crowd favorite to win B Block in SANADA,

and the Ace of the Universe Hiroshi Tanahashi, that win being obtained while blindfolded. 

G1 CLIMAX 30

Those facts alone make Toru Yano a force to be reckoned with going into this bout with EVIL. Yano can beat any given wrestler on any given night. The question is whether Yano’s luck has run out. EVIL lost his opening bout after a flash cradle from Zack Sabre Junior, and YOSHI-HASHI gave the former double IWGP Champion far too much to worry about than he had bargained for, meaning he will be in no mood for fun and games in Korakuen Hall. Meanwhile the presence of Dick Togo at ringside will certainly prevent Yano from using his trademark hijinks unimpeded. Will Yano’s Cinderella run come to an end at the hands of the King of Darkness?

And More

 

G1 CLIMAX 30 Day 6 2020 NJPW Full Show Online

 

 

 

 

Watch online

 

 

 

 

 

Server 1

 

 

 

 

watch now

 

 

 

 

Server-2

 

 

 

watch now

 

 

 

 

Server-3

 

 

 

G1 CLIMAX 30

 

 

 

 

Uploaded By Site DX-TV.com

 

 

 

 

Download Free Links with normal and high Speed [ more 15 hosts ]  

 

 

 

http://shrt10.com/ivdjU5m
http://shrt10.com/xlppjCoa
http://shrt10.com/4a8Ffy4Lb
http://shrt10.com/m6dTHJC8
http://shrt10.com/JMBh0FqU
http://shrt10.com/fqYybAwgd
http://shrt10.com/5nHp5IM
http://shrt10.com/IloSlxh
http://shrt10.com/D5TzyEn
http://shrt10.com/oaeVWN3o
http://shrt10.com/IwbYgiU
http://shrt10.com/NDIEW81
http://shrt10.com/YOhkV

 

 

 

 

Download Links with premium High Speed   

 

 

 

 

 

Keep2Share

 

 

 

nitroflare.com

 

 

 

rapidgator.net

 

 

 

uploaded.net

 

 

 

uploadgig.com

 

 

 

 

 

dx-tv.com

 

urlfree.net

Leave a Reply

Your email address will not be published. Required fields are marked *

This site uses Akismet to reduce spam. Learn how your comment data is processed.