Full Show WWE Smackdown 720p 31 07 2020 Online

Watch WWE Smackdown 2020 07 31 720p HDTV Star DX-TV

 

Full Show WWE Smackdown
 

 Free Smackdown Full Show

 

Full Show Smackdown 720p 31 07 2020 Online

 

Complete name : WWE.Smackdown.2020.07.31.720p.HDTV.x264-Star.mkv
Format : Matroska
Format version : Version 4
File size : 6.34 GiB
Duration : 1 h 28 min
Overall bit rate : 10.3 Mb/s

 Show WWE Smackdown 720p 31 07 2020 Online

Video
ID : 1
Duration : 1 h 28 min
Bit rate : 10 000 kb/s Full Show WWE Smackdown
Width : 1 280 pixels
Height : 720 pixels
Display aspect ratio : 16:9
Frame rate mode : Constant
Frame rate : 29.970 FPS
Color space : YUV
Chroma sub sampling : 4:2:0
Bit depth : 8 bits
Scan type : Progressive
Bits/(Pixel*Frame) : 0.362
Stream size : 5.98 GiB (94%)
Color range : Limited
Color primaries : BT.709
Transfer characteristics : BT.709
Matrix coefficients : BT.709

Full  WWE Smackdown 720p 31 07 2020 Online

Audio
ID : 2
Format : AC-3
Format/Info : Audio Coding 3
name : Dolby Digital
Codec ID : A_AC3
Duration : 1 h 28 min
Bit rate mode : Constant
Bit rate : 384 kb/s Full Show WWE Smackdown
Channel(s) : 2 channels
Channel layout : L R
Sampling rate : 48.0 kHz
Frame rate : 31.250 FPS
Compression mode : Lossy
Delay relative to video : -5 ms
Stream size : 242 MiB (4%)
Title : Stereo
Service kind : Complete Main
Default : Yes

Bayley and Nikki Cross set for SmackDown Women’s Championship rematch

 

Bayley played puppet master to orchestrate her latest SmackDown Women’s Championship defense,

but Nikki Cross will look to make her pay for trying to drive a wedge between her and Alexa Bliss. Full Show WWE Smackdown

The rivals will meet in a rematch of their controversial title match at The Horror Show at WWE Extreme Rules.

In the last showdown, Cross seemed on the cusp of a breakthrough, Free SmackDown Live

 

Full  WWE Smackdown 720p 31 07 2020 Online

 

 

 

Watch online

 

 

Server 1

 

 

 

 

watch now

 

Full Show WWE Smackdown

 

 

Server 2

 

 

 

Free Smackdown Full Show

 

 

 

Server-3

 

 

 

watch now

 

 

 

Uploaded By Site DX-TV.com

Show WWE Smackdown 720p 31 07 2020 Online

 

 

Download with premium account Links 

 

 

Keep2Share

 

 

nitroflare.com

 

 

rapidgator.net

 

 

uploadgig.com

 

 

 

dx-tv.com

 

urlfree.net

 59 total views,  6 views today

Leave a Reply

Your email address will not be published. Required fields are marked *

This site uses Akismet to reduce spam. Learn how your comment data is processed.

%d bloggers like this: