Free WWE Talking Smack 2020 08 21 Online

Watch ree WWE Talking Smack 2020 08 21 1080p DX-TV

 

WWE Talking Smack 2020 08 21

 

 WWE Talking Smack 2020 08 21 Online

 

Free WWE Talking Smack 2020 08 21 Online

 

 

 

[su_expand more_text=”Show More Info” less_text=”Close all Info” height=”30″ text_color=”#000000″ link_color=”#e25f8b” link_style=”button” more_icon=”icon: arrow-down” less_icon=”icon: arrow-up”]

 

Complete name : WWE.Talking.Smack.2020.08.21.1080p.WEB.h264-HEEL.mp4
Format : MPEG-4
Format profile : Base Media
Codec ID : isom
File size : 1.38 GiB
Duration : 24 min 45 s  Talking Smack 2020 08 21
Overall bit rate mode : Variable
Overall bit rate : 7 955 kb/s
Writing application : Lavf58.32.104

Free WWE Talking Smack 2020 08 21 Online

Video
ID : 1
Format : AVC
Codec ID : avc1
Codec ID/Info : Advanced
Duration : 24 min 45 s
Bit rate : 7 808 kb/s
Width : 1 920 pixels
Height : 1 080 pixels
Display aspect ratio : 16:9
Frame rate mode : Constant
Frame rate : 30.000 FPS
Color space : YUV
Chroma subsampling : 4:2:0
Bit depth : 8 bits
Scan type : Progressive
Bits/(Pixel*Frame) : 0.126
Stream size : 1.34 GiB (97%)

Free WWE Talking Smack 2020 08 21 Online

Audio
ID : 2
Format : AAC LC
Format/Info : Advanced
Codec ID : mp4a-40-2  Talking Smack 2020 08 21
Duration : 24 min 45 s
Bit rate mode : Variable
Bit rate : 199 kb/s
Maximum bit rate : 250 kb/s
Channel(s) : 2 channels
Channel layout : L R
Sampling rate : 48.0 kHz
Frame rate : 46.875 FPS (1024 SPF)
Compression mode : Lossy
Stream size : 35.3 MiB (3%)
Default : Yes
Alternate group : 1

 

Free WWE Talking Smack 2020 08 21 Online

Beginning tomorrow morning, WWE Talking Smack will be back in the lives of ,

the WWE Universe and available to stream anytime on the Free Version of WWE Network.

Join hosts Kayla Braxton and Xavier Woods as they welcome your favorite Superstars and react,

to what promises to be an exciting episode of Friday Night SmackDown,

as it makes its debut inside the WWE Thunder Dome just two days before SummerSlam.

Don’t miss the return of Talking Smack, streaming on demand Saturday morning on the Free Version of WWE Network!

 

Free WWE Talking Smack 2020 08 21 Online

 

 

[/su_expand]

 

 

 

Watch online

 

 

[su_expand more_text=”Open Videos Online” less_text=”Close Videos” height=”0″ text_color=”#0859fe” link_color=”#a74a69″ link_style=”button” more_icon=”icon: play” less_icon=”icon: stop”]

 

 

Server 1

 

 

 

 

watch now

 

 

 

Server-2

 

 

 

watch now

[/su_expand]
 

 

Uploaded By Site DX-TV.com

 

 

 

Download Links with High Speed   

 

 

[su_expand more_text=”Open Download Links” less_text=”Close all Links” height=”0″ text_color=”#4b9a3e” link_color=”#1b3fa8″ link_style=”button” more_icon=”icon: link” less_icon=”icon: unlink”]
 

Keep2Share

 

 

 

nitroflare.com

 

 

 

rapidgator.net

 

 

 

uploadgig.com

 

 

[/su_expand]
dx-tv.com

 

urlfree.net

Leave a Reply

Your email address will not be published. Required fields are marked *

This site uses Akismet to reduce spam. Learn how your comment data is processed.