Free WWE Steve Austins Broken Skull Sessions S01E10 DX

WWE Steve Austins Broken Skull Sessions S01E10 The Undertaker One More Round DX-TV

WWE Steve Austins Broken Skull

 

WWE Steve Austins Broken Skull


 

[su_expand more_text=”Show More Info” less_text=”Close all Info” height=”30″ text_color=”#000000″ link_color=”#e25f8b” link_style=”button” more_icon=”icon: arrow-down” less_icon=”icon: arrow-up”]

Steve Austins Broken Skull

Complete name : WWE.Steve.Austins.Broken.Skull.Sessions.S01E10.The.Undertaker.One.More.Round.720p.Lo.WEB.h264-HEEL.mp4
Format : MPEG-4
Format profile : Base Media
Codec ID : isom
File size : 1.45 GiB
Duration : 2 h 1 min
Overall bit rate mode : Variable
Overall bit rate : 1 708 kb/s
Writing application : Lavf58.32.104

Free  WWE Steve Austins Broken Skull

Video
ID : 1
Format : AVC
Duration : 2 h 1 min
Bit rate : 1 512 kb/s
Width : 1 280 pixels
Height : 720 pixels
Display aspect ratio : 16:9
Frame rate mode : Constant
Frame rate : 30.000 FPS
Color space : YUV
Chroma subsampling : 4:2:0
Bit depth : 8 bits
Scan type : Progressive
Bits/(Pixel*Frame) : 0.055
Stream size : 1.27 GiB

WWE Steve Austins Broken Skull

Audio
ID : 2
Format : AAC LC
Format/Info : Advanced Audio
Codec ID : mp4a-40-2
Duration : 2 h 1 min
Bit rate mode : Variable
Bit rate : 192 kb/s
Maximum bit rate : 289 kb/s
Channel(s) : 2 channels
Channel layout : L R
Sampling rate : 48.0 kHz
Frame rate : 46.875 FPS
Compression mode : Lossy
Stream size : 167 MiB
Default : Yes
Alternate group : 1

WWE Steve Austins Broken Skull

Complete name : WWE.Steve.Austins.Broken.Skull.Sessions.S01E10.The.Undertaker.One.More.Round.720p.Hi.WEB.h264-HEEL.mp4
Format : MPEG-4
Format profile : Base Media
Codec ID : isom
File size : 3.01 GiB
Duration : 2 h 1 min
Overall bit rate mode : Variable
Overall bit rate : 3 559 kb/s
Writing application : Lavf58.32.104

Video
ID : 1
Format : AVC
Format/Info : Advanced
Duration : 2 h 1 min
Bit rate : 3 372 kb/s
Width : 1 280 pixels
Height : 720 pixels
Display aspect ratio : 16:9
Frame rate mode : Constant
Frame rate : 30.000 FPS
Color space : YUV
Chroma subsampling : 4:2:0
Bit depth : 8 bits
Scan type : Progressive
Bits/(Pixel*Frame) : 0.122
Stream size : 2.84 GiB

WWE Steve Austins Broken Skull

Audio
ID : 2
Format : AAC LC
Format/Info : Advanced Audio
Codec ID : mp4a-40-2
Duration : 2 h 1 min
Bit rate mode : Variable
Bit rate : 192 kb/s
Maximum bit rate : 289 kb/s
Channel(s) : 2 channels
Channel layout : L R
Sampling rate : 48.0 kHz
Frame rate : 46.875 FPS
Compression mode : Lossy
Stream size : 167 MiB (5%)
Default : Yes
Alternate group : 1

 Steve Austins Broken Skull

 

[/su_expand]

 

 

Watch online

 

 

Server 1

 

 

 

 

 

 

 

 

Server-2

 

 

 

 

 

 

 

 

Uploaded By Site DX-TV.com

 

free WWE Steve Austins Broken Skull

  Download Links with premium High Speed   

 

 

 

 

dropapk.to

 

 

 

nitroflare.com

http://shrt10.com/9UxbX
http://shrt10.com/8NNEDJA

 

 

rapidgator.net

http://shrt10.com/ZVHhh4
http://shrt10.com/FN5gYNnOa

 

 

uploaded.net

http://shrt10.com/7SIhKJs
http://shrt10.com/hCLRJKOL

 

 

uploadgig.com

http://shrt10.com/NdzvaGbLJ
http://shrt10.com/hVzKHDz

 

 

 

 

 

https://dx-tv.com/free-live-njpw-tag-league-2020-11-23-bos-jr-27-dx-tv/

You May Also Like