Free WWE Smackdown 31 07 2020 Full Show

Watch WWE Smackdown 2020 07 31 HDTV Star DX-TV

 

Free Smackdown Full Show
 Free Smackdown Full Show

Free WWE Smackdown 31 07 2020 Full Show

 

 

Complete name : WWE.Smackdown.2020.07.31.HDTV.x264-Star.mp4
Format : MPEG-4
Format profile : Base Media
Codec ID : mp42 
File size : 1.46 GiB
Duration : 1 h 28 min
Overall bit rate : 2 371 kb/s

WWE Smackdown 31 07 2020 Full Show

Video
ID : 1
Format : AVC
Duration : 1 h 28 min
Bit rate : 2 000 kb/s
Width : 720 pixels
Height : 480 pixels Free Smackdown Full Show
Display ratio : 16:9
Original rat : 16:9
Frame rate mode : Constant
Frame rate : 29.970   FPS
Standard : NTSC
Color space : YUV
Chroma sub sampling : 4:2:0
Bit depth : 8 bits
Scan type : Progressive
Bits/(Pixel*Frame) : 0.193
Stream size : 1.22 GiB (84%)
Color range : Limited
Color primaries : BT.601 NTSC
Transfer characteristics : BT.709
Matrix coefficients : BT.601
Codec configuration box : avcC

Free WWE Smackdown 31 07 2020 Full Show

Audio
ID : 2
Format : AAC LC
Format/Info : Advanced
Codec ID : mp4a-40-2
Duration : 1 h 28 min
Bit rate mode : Constant
Bit rate : 384 kb/s
Channel(s) : 2 channels
Channel layout : L R
Sampling rate : 48.0 kHz
Frame rate : 46.875 FPS Free Smackdown Full Show
Compression mode : Lossy
Stream size : 239 MiB (16%)
Title : Stereo
Default : Yes
Alternate group : 1

 

Bayley and Nikki Cross set for SmackDown Women’s Championship rematch

AJ Styles will face Gran Metalik in a showdown of supremely skilled Superstars for the Intercontinental Championship.

The Phenomenal One watched from the announce table as The King of the Ropes outlasted Lince Dorado, Free Smackdown Full Show

Drew Gulak and Shorty G in last week’s Fatal 4-Way Match to earn the title opportunity.

While Styles might have struggled with his pronunciations on commentary, Free SmackDown Live

Gran Metalik made sure the champion would remember his name with an emphatic attack on Styles after his victory.

Will a Lucha House Party break out for a new Intercontinental Champion? Or will Styles continue his reign?

Tune in to Friday Night SmackDown on FOX at 8/7 C to title clash Free Smackdown Full Show

 

Free WWE Smackdown 31 07 2020 Full Show

 

 

 

Watch online

 

 

Server 1

 

 

 

 

watch now

 

 

 

 

Server 2

 

 

Free   Smackdown 31 07 2020 Full Show

Free Smackdown Full Show

 

 

 

Server-3

 

 

 

watch now

 

 

 

Uploaded By Site DX-TV.com

 

 

 

Download with premium account Links 

 

 

Keep2Share

 

 

nitroflare.com

 

 

rapidgator.net

 

 

uploadgig.com

 

 

 

dx-tv.com

 

urlfree.net

 54 total views,  7 views today

Leave a Reply

Your email address will not be published. Required fields are marked *

This site uses Akismet to reduce spam. Learn how your comment data is processed.

%d bloggers like this: