Free WWE SmackDown 2020 09 25 Full Show Online

Watch WWE Friday Night SmackDown 2020 09 25 HDTV NWCHD DX-TV

WWE SmackDown

 WWE SmackDown

 

 

Free WWE SmackDown 2020 09 25 Full Show Online

 

 

 

 

[su_expand more_text=”Show More Info” less_text=”Close all Info” height=”30″ text_color=”#000000″ link_color=”#e25f8b” link_style=”button” more_icon=”icon: arrow-down” less_icon=”icon: arrow-up”]

 

Shinsuke Nakamura def. Gran Metalik

 

Before their respective teams battle for the SmackDown Tag Team Titles at WWE Clash of Champions, Shinsuke Nakamura and Gran Metalik went to battle on the blue brand. Nakamura showed some trademark aggression, as The Artist buried Gran Metalik’s head into the turnbuckle. The King of the Ropes earned an advantage with a jaw-dropping aerial assault but was unable to secure the pin over Nakamura. After a flurry from The King of Strong Style, Nakamura connected on a devastating Kinshasa to finish off the match. Cesaro then took out Lince Dorado, as Kalisto remained unscathed on the outside. Tensions boiled over with Lucha House Party once again as Dorado shoved Kalisto in disagreement after the match. WWE SmackDown

WWE SmackDown

King Corbin def. Matt Riddle

King Corbin had been biding his time for another opportunity to humble Matt Riddle, and the royal Superstar made the most of his latest showdown with the blue brand newcomer. The Original Bro defeated Corbin at WWE Payback and started tonight’s match as if he was shot out of a cannon. The strength of Corbin proved too much, as a Powerbomb reversal of Riddle’s triangle appeared to swing the match. Riddle authored a huge rally, but the King reigned supreme with an End of Days to defeat The Original Bro. WWE SmackDown

 

WWE SmackDown

Complete name : WWE.Friday.Night.SmackDown.2020.09.25.HDTV.x264-NWCHD.mp4
Format : MPEG-4
Format profile : Base Media
Codec ID : isom
File size : 967 MiB
Duration : 1 h 24 min
Overall bit rate : 1 596 kb/s
Writing application : Lavf58.27.103

WWE SmackDown

Video
ID : 1
Format : AVC
Format/Info : Advanced
Duration : 1 h 24 min
Bit rate : 1 400 kb/s
Width : 704 pixels
Height : 400 pixels
Display aspect ratio : 16:9
Original aspect rat : 16:9
Frame rate mode : Variable
Frame rate : 29.970 (30000/1001) FPS
Color space : YUV
Chroma subsampling : 4:2:0
Bit depth : 8 bits
Scan type : Progressive
Bits/(Pixel*Frame) : 0.166
Stream size : 845 MiB (87%)
Color primaries : BT.709
Transfer characteristics : BT.709
Matrix coefficients : BT.709
Codec configuration box : avcC

WWE SmackDown

Audio
ID : 2
Format : AAC LC
Format/Info : Advanced Audio
Codec ID : mp4a-40-2
Duration : 1 h 24 min
Bit rate mode : Constant
Bit rate : 192 kb/s
Channel(s) : 2 channels
Channel layout : L R
Sampling rate : 48.0 kHz
Frame rate : 46.875 FPS (1024 SPF)
Compression mode : Lossy
Stream size : 116 MiB (12%)
Title : Stereo
Language : English
Default : Yes
Alternate group : 1

 

 

 

WWE SmackDown 2020 09 25 720p Full Show Free

 

 

[/su_expand]

 

 

 

Watch online

 

 

[su_expand more_text=”Open Videos Online” less_text=”Close Videos” height=”0″ text_color=”#0859fe” link_color=”#a74a69″ link_style=”button” more_icon=”icon: play” less_icon=”icon: stop”]

 

 

Server 1

 

 

 

 

watch now

 

 

 

 

Server-2

 

 

 

watch now

 

 

 

 

Server-3

 

 

 

WWE SmackDown

 

 

 

[/su_expand]
 

Uploaded By Site DX-TV.com

 

 

 

 

 

Download Free Links with normal and high Speed [ more 14 hosts ]  

 

[su_expand more_text=”Show Hosts Info” less_text=”Close all Info” height=”30″ text_color=”#000000″ link_color=”#e25f8b” link_style=”button” more_icon=”icon: arrow-down” less_icon=”icon: arrow-up”]

 

WWE SmackDown

 

hexupload.net – clicknupload.co – www.multiup.org – uptobox.com – anonfiles.com – userscloud.com –

dropapk.to alfafile.net – ddownload.com – rockfile.co – 1fichier.com – filedown.org – katfile.com – filerio.in

 

 

 

[/su_expand]

 

 

http://shrt10.com/dQWe1
http://shrt10.com/2FYEEX
http://shrt10.com/PvX6MAhE
http://shrt10.com/pATtsek
http://shrt10.com/lro3v
http://shrt10.com/HFFRn
http://shrt10.com/hehM0
http://shrt10.com/qvotcwf
http://shrt10.com/fHaKI5
http://shrt10.com/wwdWlASPc
http://shrt10.com/OYe3l3YL
http://shrt10.com/1I8sBkq
http://shrt10.com/TYFpQt

 

 

 

Download Links with premium High Speed   

 

 

[su_expand more_text=”Open Download Links” less_text=”Close all Links” height=”0″ text_color=”#4b9a3e” link_color=”#1b3fa8″ link_style=”button” more_icon=”icon: link” less_icon=”icon: unlink”]

Keep2Share

 

 

nitroflare.com

 

 

 

rapidgator.net

 

 

 

uploaded.net

 

 

 

uploadgig.com

 

 

[/su_expand]
dx-tv.com

 

urlfree.net

Leave a Reply

Your email address will not be published. Required fields are marked *

This site uses Akismet to reduce spam. Learn how your comment data is processed.