Free WWE SmackDown 13 Nov 2020 720p 1080p Full Show

Watch Free WWE SmackDown 13 November 2020 702p / 1080p HDTV Star DX-TV

WWE SmackDown 13 Nov 2020

 

 WWE SmackDown 13 Nov 2020
 


 

 

Free WWE SmackDown 13 Nov 2020 720p 1080p Full Show

 

Complete name : WWE.Friday.Night.SmackDown.2020.11.13.1080p.HDTV.x264-Star.mkv
Format : Matroska
Format version : Version 4
File size : 6.26 GiB
Duration : 1 h 27 min
Overall bit rate : 10.3 Mb/s

WWE SmackDown 13 Nov 2020

Video
ID : 1
Format : AVC
Duration : 1 h 27 min
Bit rate : 10 000 kb/s
Width : 1 920 pixels
Height : 1 080 pixels
Display aspect ratio : 16:9
Frame rate mode : Constant
Frame rate : 29.970 FPS
Color space : YUV
Chroma subsampling : 4:2:0
Bit depth : 8 bits
Scan type : Progressive
Bits/(Pixel*Frame) : 0.161
Stream size : 5.98 GiB (96%)
Forced : No
Color range : Limited
Color primaries : BT.709
Transfer characteristics : BT.709
Matrix coefficients : BT.709

WWE SmackDown 13 Nov 2020

Audio
ID : 2
Format : AC-3
Format/Info : Audio Coding 3
Commercial name : Dolby Digital
Codec ID : A_AC3
Duration : 1 h 27 min
Bit rate mode : Constant
Bit rate : 256 kb/s
Channel(s) : 2 channels
Channel layout : L R
Sampling rate : 48.0 kHz
Frame rate : 31.250 FPS
Compression mode : Lossy
Delay relative to video : -5 ms
Stream size : 160 MiB (2%)
Title : Stereo
Service kind : Complete Main
Default : Yes
Forced : No

WWE SmackDown 13 Nov 2020

Drew McIntyre journeyed to SmackDown to confront Roman Reigns

Universal Champion Roman Reigns opened SmackDown talking about his “island of relevancy,” his family’s recent dominance .

and his upcoming match against WWE Champion Randy Orton at Survivor Series Then, out of nowhere.

Drew McIntyre stepped onto the blue brand to stand toe to toe with The Big Dog.

The Scottish Superstar vowed to defeat Orton on Raw in their title rematch and go on to beat Reigns at Survivor Series.

But just when it looked like the situation was going to turn volatile.

Jey Uso interrupted to stand in front of his cousin and challenge McIntyre to a match. In response.

the Scotsman shoved Uso to the canvas before sharing some private words with Reigns.

 

Free WWE SmackDown 13 Nov 2020 720p 1080p Full Show

 

Watch online

 

 

Server 1

 

 

 

 

 

 

 

WWE SmackDown 13 Nov 2020

Server-2

 

 

 

 

Uploaded By Site DX-TV.com

 

 

 

 

Download Free Links with normal and high Speed [ more 14 hosts ]  

 

[su_expand more_text=”Show Hosts Info” less_text=”Close all Info” height=”30″ text_color=”#000000″ link_color=”#e25f8b” link_style=”button” more_icon=”icon: arrow-down” less_icon=”icon: arrow-up”]

 

 SmackDown 13 Nov 2020

hexupload.net – clicknupload.co – www.multiup.org

– uptobox.com – anonfiles.com – userscloud.com –

dropapk.to alfafile.net – ddownload.com – rockfile.co

– 1fichier.com – filedown.org – katfile.com – filerio.in

 

 

[/su_expand]

 

 

720p

 

http://shrt10.com/aLpVRt4
http://shrt10.com/jh1KFtxY
http://shrt10.com/7XMBVU
http://shrt10.com/8eQulSpc
http://shrt10.com/p9peVKTR

 

 

1080p

 

http://shrt10.com/Emhj3
http://shrt10.com/rqZZUg
http://shrt10.com/0pqMxxfo

 

 

WWE SmackDown 13 Nov 2020

Download Links with premium High Speed   

 

 

 

 

dropapk.to

http://shrt10.com/QX1dBh7

http://shrt10.com/zHSuEaBM8

 

nitroflare.com

http://shrt10.com/os7vX1

http://shrt10.com/SeA2aqNeP

 

rapidgator.net

http://shrt10.com/8lWz6qQ

http://shrt10.com/VqKYuY0V

 

uploaded.net

http://shrt10.com/J8QeV

 

 

uploadgig.com

http://shrt10.com/UmU2G

http://shrt10.com/PG8GWwq

 

 

 

dx-tv.com

 

urlfree.net

Leave a Reply

Your email address will not be published. Required fields are marked *

This site uses Akismet to reduce spam. Learn how your comment data is processed.