Free WWE NXT UK 1080p 2019 11 21

Free WWE NXT UK 1080p 2019 11 21 DX-TV

 

 

WWE NXT UK

 

 

 

 

dx-tv.com

 

 

 

 

Free WWE NXT UK 1080p 2019 11 21

 

 

 

 

 

Complete name : WWE.NXT.UK.2019.11.21.1080p.WEB.h264-HEEL.mp4
Format : MPEG-4
Format profile : Base Media
Codec ID : isom (isom/iso2/avc1/mp41)
File size : 2.72 GiB
Duration : 1 h 6 min
Overall bit rate mode : Variable
Overall bit rate : 5 908 kb/s
Writing application : Lavf58.32.104

Video
ID : 1
Format : AVC
Duration : 1 h 6 min
Bit rate : 5 772 kb/s
Width : 1 920 pixels
Height : 1 080 pixels
Display aspect ratio : 16:9
Frame rate mode : Variable
Frame rate : 30.000 FPS
Minimum frame rate : 29.412 FPS
Maximum frame rate : 30.303 FPS
Color space : YUV
Chroma subsampling : 4:2:0
Bit depth : 8 bits
Scan type : Progressive
Bits/(Pixel*Frame) : 0.093
Stream size : 2.66 GiB (98%)
Codec configuration box : avcC

Audio
ID : 2
Format : AAC LC
Format/Info : Advanced Audio Codec Low Complexity
Codec ID : mp4a-40-2
Duration : 1 h 6 min
Bit rate mode : Variable
Bit rate : 125 kb/s
Maximum bit rate : 128 kb/s
Channel(s) : 2 channels
Channel layout : L R
Sampling rate : 48.0 kHz
Frame rate : 46.875 FPS (1024 SPF)
Compression mode : Lossy
Stream size : 59.2 MiB (2%)
Default : Yes
Alternate group : 1

Text #1
ID : 1-CC1
Format : EIA-608
Muxing mode : SCTE 128 / DTVCC Transport
Muxing mode, more info : Muxed in Video #1
Duration : 1 h 6 min
Bit rate mode : Constant
Stream size : 0.00 Byte (0%)
CaptionServiceName : CC1

Text #2
ID : 1-T1
Format : EIA-608
Muxing mode : SCTE 128 / DTVCC Transport
Muxing mode, more info : Muxed in Video #1
Duration : 1 h 6 min
Bit rate mode : Constant
Stream size : 0.00 Byte (0%)
CaptionServiceName : T1

Text #3
ID : 1-CC3
Format : EIA-608
Muxing mode : SCTE 128 / DTVCC Transport
Muxing mode, more info : Muxed in Video #1
Duration : 1 h 6 min
Bit rate mode : Constant
Stream size : 0.00 Byte (0%)
CaptionServiceName : CC3

 

 

 

 

 

 

Watch online

 

 

Waiting finish converting video

 

 

Server 1

 

 

 

 

 

 


 

 

Server 2

 

 

 

 

 

 

 

 

 

 

 

 

 

 

 

Uploaded By Site DX-TV.com

 

 

 

 

 

Free WWE NXT UK 1080p 2019 11 21

 

 

 

 

 

 

Recommended For Free

 

 

 

 

earn4files.com

 

 

 

 

clicknupload.org

 

 

 

 

 

Download with high speed with Premium account

 

 

 

 

 

 

 

nitroflare.com

 

 

 

 

 

 

 

rapidgator.net

 

 

 

 

 

 

 

uploaded.net

 

 

 

 

 

 

 

 

 

 

 97 total views,  1 views today

%d bloggers like this:
Optimized with PageSpeed Ninja