Free WWE NXT 25 Nov 2020 Full Show Online /720p DX-TV

Watch Free WWE NXT 25 Nov 2020 HDTV Star /720p DX-TV

WWE NXT 25 Nov 2020

 

Free WWE NXT 25 Nov 2020

 

[su_expand more_text=”Show More Info” less_text=”Close all Info” height=”30″ text_color=”#000000″ link_color=”#e25f8b” link_style=”button” more_icon=”icon: arrow-down” less_icon=”icon: arrow-up”]

 

Complete name : WWE.NXT.2020.11.25.HDTV.x264-Star.mp4
Format : MPEG-4
Format profile : Base Media
Codec ID : mp42
File size : 938 MiB
Duration : 1 h 29 min
Overall bit rate : 1 464 kb/s

WWE NXT 25 Nov 2020

Video
ID : 1
Format : AVC
Duration : 1 h 29 min
Bit rate : 1 300 kb/s
Width : 720 pixels
Height : 480 pixels
Display aspect ratio : 16:9
Original aspect rat : 16:9
Frame rate mode : Constant
Frame rate : 29.970FPS
Standard : NTSC
Color space : YUV
Chroma subsampling : 4:2:0
Bit depth : 8 bits
Scan type : Progressive
Bits/(Pixel*Frame) : 0.126
Stream size : 830 MiB (89%)
Color range : Limited
Color primaries : BT.601 NTSC
Transfer characteristics : BT.709
Matrix coefficients : BT.601
Codec configuration box : avc

Free  WWE NXT 25 Nov 2020

Audio
ID : 2
Format : AAC LC
Format/Info : Advanced Audio
Codec ID : mp4a-40-2
Duration : 1 h 29 min
Bit rate mode : Constant
Bit rate : 159 kb/s
Channel(s) : 2 channels
Channel layout : L R
Sampling rate : 48.0 kHz
Frame rate : 46.875 FPS
Compression mode : Lossy
Stream size : 102 MiB
Title : Stereo
Default : Yes
Alternate group : 1

Free WWE NXT 25 Nov 2020

Complete name : WWE.NXT.2020.11.25.720p.HDTV.x264-Star.mkv
Format : Matroska
Format version : Version 4
File size : 3.24 GiB
Duration : 1 h 29 min
Overall bit rate : 5 184 kb/s

Video
ID : 1
Format : AVC
Duration : 1 h 29 min
Bit rate : 5 000 kb/s
Width : 1 280 pixels
Height : 720 pixels
Display aspect ratio : 16:9
Frame rate mode : Constant
Frame rate : 29.970 FPS
Color space : YUV
Chroma subsampling : 4:2:0
Bit depth : 8 bits
Scan type : Progressive
Bits/(Pixel*Frame) : 0.181
Stream size : 3.06 GiB (94%)
Color range : Limited
Color primaries : BT.709
Transfer characteristics : BT.709
Matrix coefficients : BT.709

Free  WWE NXT 25 Nov 2020

Audio
ID : 2
Format : AC-3
Format/Info : Audio
Commercial name : Dolby
Codec ID : A_AC3
Duration : 1 h 29 min
Bit rate mode : Constant
Bit rate : 192 kb/s
Channel(s) : 2 channels
Channel layout : L R
Sampling rate : 48.0 kHz
Frame rate : 31.250 FPS
Compression mode : Lossy
Delay relative to video : -5 ms
Stream size : 123 MiB
Title : Stereo
Service kind : Complete Main
Default : Yes
Forced : No

 

 

[/su_expand]

 

 

Watch online

 

 

Server 1

 

 

 

 

 

 

 

 

Server-2

 

 

 

 

 

https://dx-tv.com/wwe-survivor-series-2020-ppv-free-full-show-online-720p/

 

 

Uploaded By Site DX-TV.com

 

Free WWE NXT 25 Nov 2020

Download Free Links with normal and high Speed [ more 14 hosts ]  

 

[su_expand more_text=”Show Hosts Info” less_text=”Close all Info” height=”30″ text_color=”#000000″ link_color=”#e25f8b” link_style=”button” more_icon=”icon: arrow-down” less_icon=”icon: arrow-up”]

 

 

hexupload.net – clicknupload.co – www.multiup.org

– uptobox.com – anonfiles.com – userscloud.com –

dropapk.to alfafile.net – ddownload.com – rockfile.co

– 1fichier.com – filedown.org – katfile.com – filerio.in

 

 

[/su_expand]

 

400p

 

http://shrt10.com/buV5bNX
http://shrt10.com/LgoAVc
http://shrt10.com/xKNv4HPX
http://shrt10.com/pvtPeYr
http://shrt10.com/oTi5taF5
http://shrt10.com/qEDZojl
http://shrt10.com/LufzsDg32
http://shrt10.com/RKmPTlU

 

 

720p

 

http://shrt10.com/oki3KBb
http://shrt10.com/9wfXnRpxF
http://shrt10.com/iiVwmQ4
http://shrt10.com/4hOUKBu0
http://shrt10.com/OLXQgUU

 

Free WWE NXT 25 Nov 2020

Download Links with premium High Speed   

 

 

 

 

dropapk.to

http://shrt10.com/pU0kbY
http://shrt10.com/0PqPz

 

 

nitroflare.com

http://shrt10.com/SmjiJ0q
http://shrt10.com/zXldHlan

 

 

rapidgator.net

http://shrt10.com/XMWpUJiE
http://shrt10.com/augGqzq

 

 

uploaded.net

http://shrt10.com/7NqnObM
http://shrt10.com/NhuWUff0Y

 

 

uploadgig.com

http://shrt10.com/rh2Ix
http://shrt10.com/7VPgvD

 

Free WWE NXT 25 Nov 2020

You May Also Like

Leave a Reply

Your email address will not be published. Required fields are marked *

This site uses Akismet to reduce spam. Learn how your comment data is processed.