Free WWE NXT 2019 11 06 DX-TV

Free WWE NXT 2019 11 06 Full Show DX-TV

 

 

 WWE NXT

 

 

 

 

dx-tv.com

 

 

 

 

Free WWE NXT 2019 11 06 DX-TV

 

 

 

 

 

Complete name : WWE.NXT.2019.11.06.WEB x64 DX-TV.mp4
Format : MPEG-4
Format profile : Base Media / Version 2
Codec ID : mp42 (mp42)
File size : 1.48 GiB
Duration : 1 h 39 min
Overall bit rate : 2 137 kb/s

Video
ID : 1
Format : AVC
Format/Info : Advanced Video Codec
Codec ID/Info : Advanced Video Coding
Duration : 1 h 39 min
Bit rate : 1 998 kb/s
Width : 960 pixels
Height : 540 pixels
Display aspect ratio : 16:9
Frame rate mode : Constant
Frame rate : 59.940 (60000/1001) FPS
Color space : YUV
Chroma subsampling : 4:2:0
Bit depth : 8 bits
Scan type : Progressive
Bits/(Pixel*Frame) : 0.064
Stream size : 1.38 GiB (93%)
Language : English
Codec configuration box : avcC

Audio
ID : 2
Format : AAC LC
Format/Info : Advanced Audio Codec Low Complexity
Codec ID : mp4a-40-2
Duration : 1 h 39 min
Bit rate mode : Constant
Bit rate : 128 kb/s
Channel(s) : 2 channels
Channel layout : L R
Sampling rate : 44.1 kHz
Frame rate : 43.066 FPS (1024 SPF)
Compression mode : Lossy
Stream size : 90.8 MiB (6%)
Title : Stereo
Language : English
Default : Yes
Alternate group : 1

 

 

 

 

 

 

Watch online

 

 

Waiting finish converting video

 

 

Server 1

 

 

 

 

 

 

 


 

 

 

 

 

Server 2

 

 

 

 

 

 

 

 

 

 

 

 

 

 

 

Uploaded By Site DX-TV.com

 

 

 

 

 

Free WWE NXT 2019 11 06 DX-TV

 

 

 

 

 

 

Recommended For Free

 

 

 

 

earn4files.com

 

 

Download with high speed with Premium account

 

 

 

 

nitroflare.com

 

 

 

rapidgator.net

 

 

 

uploaded.net

 

 

 

uploadgig.com

 

 

 

 

 

 

Leave a Reply

Your email address will not be published. Required fields are marked *

one × four =