Free WWE clash of champions 2020 Full Show Online

Free WWE Clash Of Champions 2020 PPV HDTV Star DX-TV

 

Watch WWE clash of champions

 

 Watch WWE clash of champions
 


 

 

Free WWE clash of champions 2020 Full Show Online

 

 

 

 

Complete name : WWE.Clash.Of.Champions.2020.PPV.HDTV.x264-Star.mp4
Format : MPEG-4
Format profile : Base Media
Codec ID : mp42
File size : 1.82 GiB
Duration : 2 h 58 min
Overall bit rate : 1 463 kb/s

Watch WWE clash of champions

Video
ID : 1
Format : AVC
Format/Info : Advanced Video
Duration : 2 h 58 min
Bit rate : 1 300 kb/s
Width : 720 pixels
Height : 480 pixels
Display aspect ratio : 16:9
Original aspect rat : 16:9
Frame rate mode : Constant
 rate : 29.970 (30000/1001) FPS
Standard : NTSC
Color space : YUV
Chroma subsampling : 4:2:0
Bit depth : 8 bits
Scan type : Progressive
Bits/(Pixel*Frame) : 0.126
Stream size : 1.61 GiB (88%)
Color range : Limited
Color primaries : BT.601 NTSC
Transfer characteristics : BT.709
Matrix coefficients : BT.601
Codec configuration box : avcC

Watch WWE clash of champions

Audio
ID : 2
Format : AAC LC
Format/Info : Advanced Audio
Codec ID : mp4a-40-2
Duration : 2 h 58 min
Bit rate mode : Constant
Bit rate : 160 kb/s
Channel(s) : 2 channels
Channel layout : L R
Sampling rate : 48.0 kHz
Frame rate : 46.875 FPS (1024 SPF)
Compression mode : Lossy
Stream size : 204 MiB (11%)
Title : Stereo
Default : Yes
Alternate group : 1

Watch WWE clash of champions

WWE Women’s Tag Team Championship: Shayna Baszler and Nia Jax (c) vs

The Riott Squad (Ruby Riott and Liv Morgan)

Remember when Take That kept shedding members but kept calling themselves Take That all the same?

Well, despite Sarah Logan’s departure from WWE, the Riott Squad are back as a duo.

Ruby Riott and Liv Morgan are a sleek twosome, and they’re already back in the hunt for tag gold.

They’re up against a much more recent pairing in Shayna Baszler and Nia Jax, but despite the champs having less time to gel, we can’t see them losing the belts.

Baszler and Jax simply have too much power for the Riott Squad to be a real threat just yet, but don’t expect them to give up. This one will trundle on for at least another PPV.

PREDICTION: Shayna Baszler and Nia Jax

Watch WWE clash of champions

 Raw Women’s Championship: Asuka (c) vs Zelina Vega

Sure, it’s Clash of Champions and every match is a title match, but it still feels off that a major singles championship match has been pre-announced for the pre-show.

It’s a sign as much as anything of how the Bayley/Sasha Banks situation is the A-feud in the women’s half of the WWE, with Asuka’s fledgling Raw title reign shunted off to the side a bit.

It’s a shame, because Asuka is still one of the greatest competitors in WWE history.

She’ll surely shrug off her position on the card and look to make a statement against Zelina Vega, who has barged her way into a title shot all of a sudden.

To be frank, despite all of Zelina’s swagger we don’t see this lasting all that long. Asuka to lay down a marker and invite some stronger challenges.

PREDICTION: Asuka

 

Free WWE clash of champions 2020 Full Show Online

 

Watch online

 

 

 

 

 

Server 1

 

 

 

 

watch now

 

 

 

 

Server-2

 

 

 

watch now

 

 

 

 

Server-3

 

 

 

Watch WWE clash of champions

 

 

 

 

Uploaded By Site DX-TV.com

 

 

 

 

Download Free Links with normal and high Speed [ more 15 hosts ]  

 

 

 

 

http://shrt10.com/DpaQslRQv
http://shrt10.com/5iaucy
http://shrt10.com/xa2FzBC8
http://shrt10.com/lnVad6Hq3
http://shrt10.com/4JFmmr
http://shrt10.com/rpJEDn
http://shrt10.com/lZbW2ybb
http://shrt10.com/X3MVVt
http://shrt10.com/TY41bYdIk
http://shrt10.com/lgATMJq
http://shrt10.com/pUyVNNJ
http://shrt10.com/FOqYG98
http://shrt10.com/7QuVr6le

 

 

 

Download Links with premium High Speed   

 

 

 

 

nitroflare.com

 

 

 

rapidgator.net

 

 

 

uploaded.net

 

 

 

uploadgig.com

 

 

 

 

 

dx-tv.com

 

urlfree.net

Leave a Reply

Your email address will not be published. Required fields are marked *

This site uses Akismet to reduce spam. Learn how your comment data is processed.