Free Wrestling UWN Primetime Live 2020 10 27 720p Online

Watch United Wrestling Network Primetime 2020 10 27 720p HDTV Star DX-TV

Free Wrestling UWN Primetime Live

 

 Free Wrestling UWN Primetime Live

 

Free Wrestling UWN Primetime Live 2020 10 27 720p Online

 

Peter Avalon vs. Chris Dickinson

The first round of the UWN World Championship begins as AEW and UWN collide. Chris Dickinson has been prominent on Primetime Live since it’s inception, defeating Jordan Cruz on the debut episode. Since then, he remains undefeated on Primetime Live, having beaten Anthony Idol and Max Castor in decisive fashion. Peter Avalon‘s story, however, is quite the opposite. He currently holds an impressive (and quite sad) losing streak in AEW, having gone 0-27-1 since signing with the company last year. Can Avalon overcome his streak off AEW soil and move forward for this massive opportunity, or will Chris Dickinson silence the Librarian for good?

Free Wrestling UWN Primetime Live

Complete name : United.Wrestling.Network.Primetime.2020.10.27.720.HDTV.x264-Star.mkv
Format : Matroska
Format version : Version 4
File size : 3.17 GiB
Duration : 1 h 27 min
Overall bit rate : 5 175 kb/s
Writing library : Lavf58.29.100
Detection Type : Per level 1

Free Wrestling UWN Primetime Live

Video
ID : 1
Format : AVC
Duration : 1 h 27 min
Bit rate : 5 000 kb/s
Width : 1 280 pixels
Height : 720 pixels
Display aspect ratio : 16:9
rate mode : Constant
Frame rate : 29.970 FPS
Color space : YUV
Chroma subsampling : 4:2:0
Bit depth : 8 bits
Scan type : Progressive
Bits/(Pixel*Frame) : 0.181
Stream size : 2.98 GiB
Forced : No
Color range : Limited
Color primaries : BT.709
Transfer characteristics : BT.709
Matrix coefficients : BT.709

Free Wrestling UWN Primetime Live

Audio
ID : 2
Format : AC-3
Format/Info : Audio
Commercial name : Dolby 
Codec ID : A_AC3
Duration : 1 h 27 min
Bit rate mode : Constant
Bit rate : 192 kb/s
Channel(s) : 2 channels
Channel layout : L R
Sampling rate : 48.0 kHz
Frame rate : 31.250 FPS
Compression mode : Lossy
Delay relative to video : -5 ms
Stream size : 120 MiB
Title : Stereo
Service kind : Complete
Default : Yes
Forced : No

 

 

 

 Wrestling UWN Primetime Live 2020 10 27 720p Online

 

 

Watch online

 

 

 

 

 

Server 1

 

 

 

 

Free Wrestling UWN Primetime Live

 

 

 

 

Server-2

 

 

 

watch now

 

 

 

 

 

Uploaded By Site DX-TV.com

 

 Wrestling UWN Primetime Live

 

Download Links with premium High Speed   

 

 

 

 

dropapk.to

 

 

nitroflare.com

 

 

 

rapidgator.net

 

 

dx-tv.com

 

urlfree.net

Leave a Reply

Your email address will not be published. Required fields are marked *

This site uses Akismet to reduce spam. Learn how your comment data is processed.