Free Wrestling Online iMPACT Bound For Glory 2020 720p

iMPACT Wrestling Bound For Glory 2020 720P HDTV NWCHD DX-TV

Free Wrestling Online

 

 Bound For Glory 2020

Free Wrestling Online iMPACT Bound For Glory 2020 720p

 

Eddie Edwards vs Ken Shamrock w/ Sami Callihan

A new side of Ken Shamrock emerged when he brutally attacked Eddie Edwards just a few weeks ago on IMPACT!, revealing himself as Eddie’s mystery attacker.

We saw signs of remorse on the conscience of Shamrock, but Sami Callihan quickly snapped him back into his destructive state of mind.

With his former worst enemy calling the shots, there’s no telling how much chaos Shamrock will unleash on the IMPACT Wrestling roster.

What we do know is that Eddie Edwards has a chance at revenge when he collides with Shamrock in a colossal match that is now official for Bound For Glory.

Who will be victorious when these two titans go to war at the biggest event of the year?

Free Wrestling Online

Call Your Shot Gauntlet

The unique Call Your Shot Gauntlet returns this year at Bound For Glory.

Two competitors start the match. After a time interval, another will enter the fray.

Eliminations occur by throwing your opponent over the top rope.

This process will continue until there are only two competitors remaining.

The final two will compete in a singles match to be won by pinfall or submission.

Whoever scores the victory will earn a future title opportunity of their choosing.

Per Scott D’amore, the first ten participants have been announced:

Free Wrestling Online

Heath, Rhino, Hernandez, Acey Romero, Larry D, Tenille Dashwood,

 Taya Valkyrie, Brian Myers, Tommy Dreamer and Havok.

On the final IMPACT! before BFG, Hernandez pinned Rhino to earn the coveted.

20 entry spot, while Rhino must enter at disadvantageous #1.

If last year’s Call Your Shot Gauntlet taught us anything,

it’s that you never know who may show up for this high-stakes contest!

Who will call their shot on the biggest show of the year?

Free Wrestling Online

Complete name : iMPACT.Wrestling.Bound.For.Glory.2020.720p.HDTV.x264-NWCHD.mp4
Format : MPEG-4
Format profile : Base Media
Codec ID : mp42
File size : 5.61 GiB
Duration : 2 h 50 min
Overall bit rate mode : Variable
Overall bit rate : 4 705 kb/s

Free Wrestling Online

Video
ID : 1
Format : AVC
Duration : 2 h 50 min
Bit rate : 4 500 kb/s
Width : 1 280 pixels
Height : 720 pixels
Display aspect ratio : 16:9
Frame rate mode : Constant
Frame rate : 29.970 FPS
Color space : YUV
Chroma subsampling : 4:2:0
Bit depth : 8 bits
Scan type : Progressive
Bits/(Pixel*Frame) : 0.163
Stream size : 5.37 GiB (96%)
Color range : Limited
Color primaries : BT.709
Transfer characteristics : BT.709
Matrix coefficients : BT.709
Codec configuration box : avcC

Free Wrestling Online

Audio
ID : 2
Format : AAC LC
Format/Info : Advanced Audio
Codec ID : mp4a-40-2
Duration : 2 h 50 min
Bit rate mode : Variable
Bit rate : 192 kb/s
Channel(s) : 2 channels
Channel layout : L R
Sampling rate : 48.0 kHz
Frame rate : 46.875 FPS (1024 SPF)
Compression mode : Lossy
Stream size : 235 MiB (4%)
Title : Stereo / Stereo
Language : English
Default : Yes
Alternate group : 1

 

Free Wrestling Online iMPACT Bound For Glory 2020 720p

 

 

Watch online

 

 

 

Server 1

 

 

 

Free Wrestling Online

 

 

 

 

Server-3

 

 

 

watch now

 

 

 

 

Uploaded By Site DX-TV.com

 

 

Download Links with premium High Speed   

 

 

 

 

dropapk.to

 

 

 

nitroflare.com

 

 

 

rapidgator.net

 

 

 

uploadgig.com

 

 

 

 

 

dx-tv.com

 

urlfree.net

Leave a Reply

Your email address will not be published. Required fields are marked *

This site uses Akismet to reduce spam. Learn how your comment data is processed.