Free Wrestling Online AEW DARK 24 Nov 2020 1080p DX-TV

Watch Free Wrestling Online AEW DARK 24 Nov 2020 1080p DX-TV

Free Wrestling Online AEW

 

 Free Wrestling Online AEW

 

[su_expand more_text=”Show More Info” less_text=”Close all Info” height=”30″ text_color=”#000000″ link_color=”#e25f8b” link_style=”button” more_icon=”icon: arrow-down” less_icon=”icon: arrow-up”]

Free Wrestling Online AEW

Complete name : AEW.DARK.24th.Nov.2020.1080p.WEBRip.h264-TJ.mp4
Format : MPEG-4
Format profile : Base Media
Codec ID : isom 
File size : 5.23 GiB
Duration : 2 h 46 min
Overall bit rate : 4 500 kb/s
Writing application : Lavf57.83

 Wrestling Online AEW

Video
ID : 1
Format : AVC
Duration : 2 h 46 min
Bit rate : 4 362 kb/s
Width : 1 920 pixels
Height : 1 080 pixels
Display aspect ratio : 16:9
Frame rate mode : Constant
Frame rate : 29.970 FPS
Color space : YUV
Chroma subsampling : 4:2:0
Bit depth : 8 bits
Scan type : Progressive
Bits/(Pixel*Frame) : 0.070
Stream size : 5.07 GiB (97%)
Color range : Limited
Color primaries : BT.709
Transfer characteristics : BT.709
Matrix coefficients : BT.709
Codec configuration box : avc

Free Wrestling Online AEW

Audio
ID : 2
Format : AAC LC
Format/Info : Advanced Audio 
Codec ID : mp4a-40-2
Duration : 2 h 46 min
Bit rate mode : Constant
Bit rate : 128 kb/s
Channel(s) : 2 channels
Channel layout : L R
Sampling rate : 44.1 kHz
Frame rate : 43.066 FPS 
Compression mode : Lossy
Stream size : 152 MiB (3%)
Language : English
Default : Yes
Alternate group : 1

watch Free Wrestling Online AEW

In the last several weeks, Angelico and Jack Evans have made it abundantly clear they feel overlooked in the tag team ranks of All Elite Wrestling.

and AEW’s newest signees Top Flight became a target of their animus this past week on DYNAMITE.

The attack perpetrated in the video above took place right after the Martin brothers proved they have the right stuff in a fight with The Young Bucks.

A true example of making the most of an opportunity, Darius and Daunte elevated their wrestling game in front of the entire world and earned contracts with AEW.

[/su_expand]

 

 

Watch online

 

 

Server 1

 

 

 

 

 

 

Server-2

 

Free Wrestling Online AEW

 

 

impact wrestling online 03 11-2020

 

Uploaded By Site DX-TV.com

 

 

 

 

Download Free Links with normal and high Speed [ more 14 hosts ]  

 

[su_expand more_text=”Show Hosts Info” less_text=”Close all Info” height=”30″ text_color=”#000000″ link_color=”#e25f8b” link_style=”button” more_icon=”icon: arrow-down” less_icon=”icon: arrow-up”]

 Wrestling Online AEW

 

hexupload.net – clicknupload.co – www.multiup.org

– uptobox.com – anonfiles.com – userscloud.com –

dropapk.to alfafile.net – ddownload.com – rockfile.co

– 1fichier.com – filedown.org – katfile.com – filerio.in

 

 

[/su_expand]

 

400p

 

http://shrt10.com/XDUWi
http://shrt10.com/lDW6sxc6
http://shrt10.com/YrcaCkU
http://shrt10.com/EYThEeMIS
http://shrt10.com/QTPYqW
http://shrt10.com/afTtie
http://shrt10.com/EosTB6Tl
http://shrt10.com/fachX

 

 

 

 

 Wrestling Online AEW

Download Links with premium High Speed   

 

 

 

 

dropapk.to

http://shrt10.com/8VkOxljZL
http://shrt10.com/IH4oygPU

 

 

nitroflare.com

http://shrt10.com/aUdzc
http://shrt10.com/625DI

 

 

rapidgator.net

http://shrt10.com/FyIk5vzf3
http://shrt10.com/M8NPeD8R

 

 

uploaded.net

http://shrt10.com/kNpWAr

 

 

uploadgig.com

http://shrt10.com/x3c6gYEv
http://shrt10.com/x7Jv7

 Wrestling Online AEW

 

Leave a Reply

Your email address will not be published. Required fields are marked *

This site uses Akismet to reduce spam. Learn how your comment data is processed.