Free Watch WWE NXT UK 2019 10 10 1080p

Free Watch WWE NXT UK 2019 10 10 1080p DX-TV

 

 

wwe raw

 

 

 

 

dx-tv.com

 

 

 

 

Free Watch WWE NXT UK 2019 10 10 1080p

 

 

 

 

 

Complete name : WWE.NXT.UK.2019.10.10.VOD.Version.1080p.WEB.h264-HEEL.mp4
Format : MPEG-4
Format profile : Base Media
File size : 2.67 GiB
Duration : 47 min 23 s
Overall bit rate mode : Variable
Overall bit rate : 8 073 kb/s
Writing application : Lavf58.30.100

Video
ID : 1
Format : AVC
Format/Info : Advanced Video Codec
Codec ID/Info : Advanced Video Coding
Duration : 47 min 23 s
Bit rate : 7 808 kb/s
Width : 1 920 pixels
Height : 1 080 pixels
Display aspect ratio : 16:9
Frame rate mode : Constant
Frame rate : 30.000 FPS
Color space : YUV
Chroma subsampling : 4:2:0
Bit depth : 8 bits
Scan type : Progressive
Bits/(Pixel*Frame) : 0.126
Stream size : 2.56 GiB (96%)

Audio #1
ID : 2
Format : AAC LC
Codec ID : mp4a-40-2
Duration : 47 min 23 s
Bit rate mode : Constant
Bit rate : 192 kb/s
Channel(s) : 2 channels
Channel layout : L R
Sampling rate : 48.0 kHz
Frame rate : 46.875 FPS (1024 SPF)
Compression mode : Lossy
Stream size : 65.3 MiB (2%)
Language : English

Audio #2
ID : 3
Format : AAC LC
Codec ID : mp4a-40-2
Duration : 47 min 23 s
Bit rate mode : Variable
Bit rate : 125 kb/s
Maximum bit rate : 133 kb/s
Channel(s) : 2 channels
Channel layout : L R
Sampling rate : 48.0 kHz
Frame rate : 46.875 FPS (1024 SPF)
Compression mode : Lossy
Stream size : 42.5 MiB (2%)
Title : No Commentary

 

 

 

 

 

 

Watch online

 

 

Waiting finish converting video

 

 

Server 1

 

 

 

 

 

 

 

 

 

 

 

 

 

Server 2

 

 

 

 

 

 

 

 

 

 

 

 

 

 

 

Uploaded By Site DX-TV.com

 

 

 

 

 

Free Watch WWE NXT UK 2019 10 10 1080p

 

 

 

 

 

 

Recommended For Free

 

 

 

4downfiles.org

 

 

 

 

earn4files.com

 

 

 

fileup.cc

 

 

 

uptobox.com

 

 

 

 

Download with high speed with Premium account

 

 

 

 

nitroflare.com

 

 

 

rapidgator.net

 

 

 

uploaded.net

 

 

 

uploadgig.com

 

 

 

 

 

 

Categories

ADS



Archives