Free Watch WWE NXT UK 2019 10 03

Free Watch WWE NXT UK 2019 10 03 720p DX-TV

 

 

WWE NXT UK

 

 

 

 

dx-tv.com

 

 

 

 

Free Watch WWE NXT UK 2019 10 03

 

WWE TakeOver XXV 2019 Live Stream

 

 

 

Complete name : WWE.NXT.UK.2019.10.03.720p.Hi.WEB.h264-HEEL.mp4
Format : MPEG-4
Format profile : Base Media
File size : 1.26 GiB
Duration : 50 min 46 s
Overall bit rate : 3 539 kb/s

Video
ID : 1
Format : AVC
Duration : 50 min 46 s
Bit rate : 3 372 kb/s
Width : 1 280 pixels
Height : 720 pixels
Display aspect ratio : 16:9
Frame rate mode : Constant
Frame rate : 30.000 FPS
Color space : YUV
Chroma subsampling : 4:2:0
Bit depth : 8 bits
Scan type : Progressive
Bits/(Pixel*Frame) : 0.122
Stream size : 1.18 GiB (94%)

Audio
ID : 2
Format : AAC LC
Codec ID : mp4a-40-2
Duration : 50 min 46 s
Bit rate mode : Constant
Bit rate : 192 kb/s
Channel(s) : 2 channels
Channel layout : L R
Sampling rate : 48.0 kHz
Frame rate : 46.875 FPS (1024 SPF)
Compression mode : Lossy
Stream size : 70.0 MiB (5%)

 

 

 

 

 

 

Watch online

 

 

Waiting finish converting video

 

 

Server 1

 

 

 

 

 

 

 

 

 

 

 

 

 

 

Server 2

 

 

 

 

 

 

 

 

 

 

 

 

 

 

 

Uploaded By Site DX-TV.com

 

 

 

 

 

Free Watch WWE NXT UK 2019 10 03

 

 

 

 

 

 

Recommended For Free

 

 

 

4downfiles.org

 

 

 

ddl.to

 

 

 

earn4files.com

 

 

 

fileup.cc

 

 

 

uptobox.com

 

 

 

 

Download with high speed with Premium account

 

 

 

 

nitroflare.com

 

 

 

rapidgator.net

 

 

 

uploaded.net

 

 

 

uploadgig.com

 

 

 

 

 

 

 22 total views,  1 views today

%d bloggers like this:
Optimized with PageSpeed Ninja