Free Watch Online WWE Raw 2019 10 07

Free Watch Online WWE Raw 2019 10 07 DX-TV

 

 

WWE Raw

 

 

 

 

dx-tv.com

 

 

 

 

Free Watch Online WWE Raw 2019 10 07

 

 

 

 

 

Complete name : WWE.Monday.Night.Raw.2019.10.07.HDTV.x264-NWCHD.mp4
Format : MPEG-4
Format profile : Base Media
File size : 1.41 GiB
Duration : 2 h 6 min
Overall bit rate : 1 592 kb/s
Writing application : Lavf58.27.103

Video
ID : 1
Format : AVC
Duration : 2 h 6 min
Bit rate : 1 400 kb/s
Width : 704 pixels
Height : 400 pixels
Display aspect ratio : 16:9
Frame rate mode : Variable
Frame rate : 29.970 (30000/1001) FPS
Minimum frame rate : 29.155 FPS
Maximum frame rate : 29.970 FPS
Color space : YUV
Chroma subsampling : 4:2:0
Bit depth : 8 bits
Scan type : Progressive
Bits/(Pixel*Frame) : 0.166
Stream size : 1.23 GiB (87%)
Color range : Limited
Color primaries : BT.709
Transfer characteristics : BT.709
Matrix coefficients : BT.709
Codec configuration box : avcC

Audio
ID : 2
Format : AAC LC
Format/Info : Advanced
Codec ID : mp4a-40-2
Duration : 2 h 6 min
Bit rate mode : Constant
Bit rate : 192 kb/s
Channel(s) : 2 channels
Channel layout : L R
Sampling rate : 48.0 kHz
Frame rate : 46.875 FPS (1024 SPF)
Compression mode : Lossy
Stream size : 174 MiB (12%)
Title : Stereo
Default : Yes

 

 

 

 

 

 

Watch online

 

 

Waiting finish converting video

 

 

Server 1

 

 

 

 

 

 

 

watch now

 

 

 

 

 

 

 

Server 2

 

 

 

 

 

 

 

watch now

 

 

 

 

 

 

 

 

Uploaded By Site DX-TV.com

 

 

 

 

 

Free Watch Online WWE Raw 2019 10 07

 

 

 

 

 

 

Recommended For Free

 

 

 

4downfiles.org

 

 

 

earn4files.com

 

 

 

fileup.cc

 

 

 

uptobox.com

 

 

 

 

Download with high speed with Premium account

 

 

 

 

nitroflare.com

 

 

 

rapidgator.net

 

 

 

uploaded.net

 

 

 

uploadgig.com

 

 

 

 

 

 

Leave a Reply

Your email address will not be published. Required fields are marked *

2 + 6 =

WhatsApp chat