Free Watch AEW Full Gear PPV 2019 DX-TV

Free Watch AEW Full Gear PPV 2019 540p WEB x264 DX-TV

 

 

wwe raw

 

 

 

 

dx-tv.com

 

 

 

 

Free Watch AEW Full Gear PPV 2019 DX-TV

 

 

 

 

 

Complete name : AEW Full Gear PPV 2019 540p WEB x264 DX-TV.mp4
Format : MPEG-4
Format profile : Base Media
Codec ID : isom (mp41/avc1)
File size : 2.54 GiB
Duration : 3 h 41 min
Overall bit rate mode : Variable
Overall bit rate : 1 638 kb/s

Video
ID : 2
Format : AVC
Format/Info : Advanced Video Codec
Codec ID : avc1
Codec ID/Info : Advanced Video Coding
Duration : 3 h 41 min
Bit rate : 1 499 kb/s
Width : 960 pixels
Height : 540 pixels
Display aspect ratio : 16:9
Frame rate mode : Variable
Frame rate : 30.000 FPS
Minimum frame rate : 1.350 FPS
Maximum frame rate : 30.303 FPS
Color space : YUV
Chroma subsampling : 4:2:0
Bit depth : 8 bits
Scan type : Progressive
Bits/(Pixel*Frame) : 0.096
Stream size : 2.32 GiB (92%)
Language : English
Codec configuration box : avcC

Audio
ID : 1
Format : AAC LC
Format/Info : Advanced Audio Codec Low Complexity
Codec ID : mp4a-40-2
Duration : 3 h 41 min
Source duration : 3 h 41 min
Bit rate mode : Variable
Bit rate : 129 kb/s
Maximum bit rate : 301 kb/s
Channel(s) : 2 channels
Channel layout : L R
Sampling rate : 44.1 kHz
Frame rate : 43.066 FPS (1024 SPF)
Compression mode : Lossy
Stream size : 204 MiB (8%)
Source stream size : 204 MiB (8%)
Language : English

 

 

 

 

 

 

Watch online

 

 

Waiting finish converting video

 

 

Server 1

 

 

 

 

 

 

 

watch now

 

 

 

 

 

 

Server 2

 

 

 

 

 

 

 

watch now

 

 

 

 

 

 

 

 

Uploaded By Site DX-TV.com

 

 

 

 

 

Free Watch AEW Full Gear PPV 2019 DX-TV

 

 

 

 

 

 

Recommended For Free

 

 

 

 

earn4files.com

 

 

 

 

clicknupload.org

 

 

 

 

 

Download with high speed with Premium account

 

 

 

 

nitroflare.com

 

 

 

rapidgator.net

 

 

 

uploaded.net

 

 

 

 

 

Leave a Reply

Your email address will not be published. Required fields are marked *

four × one =