Free UFC Fight Night 177 Prelims mp4

Watch Free UFC Fight Night 177 Prelims mp4 DX-TV

 

UFC Fight Night 177 Prelims

 

 UFC Fight Night 177 Prelims

Free UFC Fight Night 177 Prelims mp4 

 

 

 

[su_expand more_text=”Show More Info” less_text=”Close all Info” height=”30″ text_color=”#000000″ link_color=”#e25f8b” link_style=”button” more_icon=”icon: arrow-down” less_icon=”icon: arrow-up”]

 

Complete name : C:\DX\WWE\UFC.Fight.Night.177.Prelims.WEB-BY DX-TV.COM.mp4
Format : MPEG-4
Format profile : Base Media
Codec ID : isom
File size : 1.74 GiB
Duration : 3 h 30 min
Overall bit rate mode : Variable
Overall bit rate : 1 186 kb/s
Writing application : Lavf58.12.100

Free UFC Fight Night 177 Prelims 

Video
ID : 2
Format : AVC
Format/Info : Advanced
Duration : 3 h 30 min
Bit rate mode : Variable
Bit rate : 1 046 kb/s
Maximum bit rate : 1 069 kb/s
Width : 896 pixels
Height : 504 pixels
Display aspect ratio : 16:9
Frame rate mode : Variable
Frame rate : 30.000 FPS
Standard : NTSC
Color space : YUV
Chroma sub-sampling : 4:2:0
Bit depth : 8 bits
Scan type : Progressive
Bits/(Pixel*Frame) : 0.077
Stream size : 1.54 GiB (88%)
Color range : Limited
Color primaries : BT.709
Transfer characteristics : BT.709
Matrix coefficients : BT.709
Codec configuration box : avcC

UFC Fight Night 177 Prelims 

Audio
ID : 3
Format : AAC LC
Format/Info : Advanced
Codec ID : mp4a-40-2
Duration : 3 h 30 min
Bit rate mode : Constant
Bit rate : 132 kb/s
Channel(s) : 2 channels
Channel layout : L R
Sampling rate : 48.0 kHz
Frame rate : 46.875 FPS (1024 SPF)
Compression mode : Lossy
Stream size : 198 MiB (11%)
Default : Yes
Alternate group : 1

UFC Fight Night 177 Prelims 

WHEN IS DERRICK LEWIS VS. ALEKSEI OLEINIK AT UFC FIGHT NIGHT?

  • Date: Saturday, Aug. 8
  • Prelims: 6 p.m. ET
  • Main card: 9 p.m. ET

UFC Fight Night: Lewis vs. Oleinik is slated to take place Saturday night, Aug. 8 with prelims airing at 6 p.m. ET followed by the main card at 9 p.m. ET.

LEWIS VS. OLEINIK TV CHANNEL, LIVE STREAM: HOW TO WATCH UFC FIGHT NIGHT

The UFC Fight Night: Lewis vs. Oleinik card is available on ESPN+ in the United States.

In Canada, Lewis vs. Oleinik is available on TSN2 and TSN5.

In the UK, the prelims (00:00 BST Sunday) and main card (02:00 BST Sunday) are available on BT Sport 1.

In Germany, Austria, Spain and Italy, the main card (03:00 CEST Sunday) is available on DAZN, the global sports streaming service.

To find out how to watch in other countries, visit UFC.com.

 

Free UFC Fight Night 177 Prelims mp4 

 

 

[/su_expand]

 

 

 

Watch online

 

 

[su_expand more_text=”Open Videos Online” less_text=”Close Videos” height=”0″ text_color=”#0859fe” link_color=”#a74a69″ link_style=”button” more_icon=”icon: play” less_icon=”icon: stop”]

 

 

Server 1

 

 

 

 

watch now

 

 

 

 

Server-2

 

 

 

watch now

 

 

 

 

Server-3

 

 

 

UFC Fight Night 177 Prelims

 

 

 

[/su_expand]

Uploaded By Site DX-TV.com

 

 

Now You can download from FTP server Download as per account

the show added first very fast added and speed over 100 mb

 

Download Links with High Speed   

 

 

[su_expand more_text=”Open Download Links” less_text=”Close all Links” height=”0″ text_color=”#4b9a3e” link_color=”#1b3fa8″ link_style=”button” more_icon=”icon: link” less_icon=”icon: unlink”]

nitroflare.com

 

 

 

rapidgator.net

 

 

 

[/su_expand]
dx-tv.com

 

urlfree.net

Leave a Reply

Your email address will not be published. Required fields are marked *

This site uses Akismet to reduce spam. Learn how your comment data is processed.