Free UFC 255 720p Full Show Online DX-TV

Free UFC 255 720p Full Show Online DX-TV

Free UFC 255

 

 UFC 255

 

[su_expand more_text=”Show More Info” less_text=”Close all Info” height=”30″ text_color=”#000000″ link_color=”#e25f8b” link_style=”button” more_icon=”icon: arrow-down” less_icon=”icon: arrow-up”]

 

Complete name : UFC.255.figueiredo.vs.perez.ppv.720p.hdtv.x264-verum.mkv
Format : Matroska
Format version : Version 4
File size : 4.58 GiB
Duration : 3 h 20 min
Overall bit rate : 3 263 kb/s

Free UFC 255

Video
ID : 1
Format : AVC
Duration : 3 h 20 min
Bit rate : 2 814 kb/s
Width : 1 280 pixels
Height : 720 pixels
Display aspect ratio : 16:9
rate mode : Constant
Frame rate : 50.000 FPS
Color space : YUV
Chroma subsampling : 4:2:0
Bit depth : 8 bits
Scan type : Progressive
Bits/(Pixel*Frame) : 0.061
Stream size : 3.95 GiB
Color range : Limited
Matrix coefficients : BT.709

Free UFC 255

Audio
ID : 2
Format : MPEG Audio
version : Version 1
Format profile : Layer 2
Codec ID : A_MPEG/L2
Codec ID/Hint : MP2
Duration : 3 h 20 min
Bit rate mode : Constant
Bit rate : 384 kb/s
Channel(s) : 2 channels
Sampling rate : 48.0 kHz
Compression mode : Lossy
Stream size : 552 MiB (12%)
Language : English
Default : Yes
Forced : No

Free UFC 255

UFC 255: What has been said?

Alex Perez said: “Everybody in the top five, top 10 can be beaten in any day, but I just feel like I bring the pressure.

“I bring the size for flyweight. I’m a big flyweight. I bring the size, I bring the pressure, I bring the wrestling and the cardio, so I feel like we match up well.

“It’s going to be a great fight. People are counting it out because Cody Garbrandt’s out, but I feel like we’re going to steal the show.

“I think it’s going to be ‘Fight of the Night.’ We both like to go in there, we both come forward, we both like to throw.

“If people have seen my fights, I don’t take a step back (and) he doesn’t take a step back, either. So I’m expecting a five-round war.

“I’ve been five rounds before, so I know the cardio can hold up, and I’ve seen him go to a decision a few times.

so I know his cardio can hold up. So it’s going to be a standup battle, I think. Free UFC 255

“It would mean the world to me to prove everybody wrong.

“I’ve had people tell me time and time again that I didn’t belong here, I wasn’t good enough to ever make it to the UFC.

Now look at me: I’m fighting for the title. So it’ll just be the cherry on top, winning that belt.”

[/su_expand]

 

 

Watch online

 

 

Server 1

 

 

 

 

 

 

 

 

Server-2

 

Free UFC 255

 

 

 

 

 

 

Uploaded By Site DX-TV.com

 

Free UFC 255

Download Links with premium High Speed   

 

 

 

 

dropapk.to

 

 

 

nitroflare.com

 

 

 

rapidgator.net

 

 

 

uploadgig.com

 

 

 

 

 

dx-tv.com

 

urlfree.net

You May Also Like

Leave a Reply

Your email address will not be published. Required fields are marked *

This site uses Akismet to reduce spam. Learn how your comment data is processed.