Free The Bump 05 08 2020 WWE Network 1080p

Watch Free The Bump 05 08 2020 WWE Network 1080p DX-TV

 

Free WWE Network

 

 Free WWE Network

 

Free The Bump 05 08 2020 WWE Network 1080p

 

 

Complete name : WWE.The.Bump.2020.08.05.1080p.WEB.h264-HEEL.mp4
Format : MPEG-4
Format profile : Base Media
Codec ID : isom Free WWE Network
File size : 3.30 GiB
Duration : 1 h 32 min
Overall bit rate mode : Constant
Overall bit rate : 5 126 kb/s
Writing application : Lavf58

Free The Bump 05 08 2020 

Video
ID : 1
Format : AVC
Duration : 1 h 32 min
Bit rate mode : Constant
Bit rate : 5 000 kb/s
Width : 1 920 pixels
Height : 1 080 pixels
Display aspect ratio : 16:9
Frame rate mode : Variable
Frame rate : 30.000 FPS
Color space : YUV Free WWE Network
 sub sampling : 4:2:0
Bit depth : 8 bits
Scan type : Progressive
Bits/(Pixel*Frame) : 0.080
Stream size : 3.21 GiB (97%)
Codec configuration box : avcC

 The Bump 05 08 2020 WWE Network 1080p

Audio
ID : 2
Format : AAC LC
Format/Info : Advanced
Codec ID : mp4a-40-2
Duration : 1 h 32 min
Bit rate mode : Constant
Bit rate : 129 kb/s
Channel(s) : 2 channels Free WWE Network
Channel layout : L R
Sampling rate : 44.1 kHz
Frame rate : 43.066 FPS (1024 SPF)
Compression mode : Lossy
Stream size : 84.8 MiB (3%)
Default : Yes
Alternate group : 1

The Bump 05 08 2020 WWE Network 1080p

 

 

Watch online

 

 

 

Server 1

 

 

 

 

Free WWE Network

 

 

 

 

Server 2

 

 

 

watch now

 

 

 

Server-3

 

 

 

watch now

 

 

 

Uploaded By Site DX-TV.com

Free  Bump 05 08 2020 WWE Network 1080p

 

 

Download with premium account Links 

 

 

 

Keep2Share

 

 

 

nitroflare.com

 

 

 

rapidgator.net

 

 

 

uploadgig.com

 

 

dx-tv.com

 

urlfree.net

Leave a Reply

Your email address will not be published. Required fields are marked *

This site uses Akismet to reduce spam. Learn how your comment data is processed.