Free PBC On FOX 22 08 2020 720p Online

Watch Free PBC On FOX 22 08 2020 720p Online DX-TV

 

PBC On FOX 22 08 2020 Online

 

 PBC On FOX 22 08 2020 Online
 


 

 

Free PBC On FOX 22 08 2020 720p Online

 

 

 

[su_expand more_text=”Show More Info” less_text=”Close all Info” height=”30″ text_color=”#000000″ link_color=”#e25f8b” link_style=”button” more_icon=”icon: arrow-down” less_icon=”icon: arrow-up”]

 

Complete name : PBC On FOX 08-22-2020 HDTV 720p AC3.mkv
Format : Matroska
Format version : Version 4
File size : 2.37 GiB
Duration : 2 h 18 min
Overall bit rate : 2 463 kb/s
Writing library : Lavf58.29.100
Detection Type : Per level 1

Free PBC On FOX 22 08 2020 720p Online

Video
ID : 1
Format : AVC
Duration : 2 h 18 min
Bit rate : 1 774 kb/s
Width : 1 280 pixels
Height : 720 pixels
Display aspect ratio : 16:9
Frame rate mode : Constant
rate : 29.970 (30000/1001) FPS
Color space : YUV
Chroma sub sampling : 4:2:0
Bit depth : 8 bits
Scan type : Progressive PBC On FOX 22 08 2020 Online
Bits/(Pixel*Frame) : 0.064
Stream size : 1.71 GiB (72%)
Forced : No
Color range : Limited
Color primaries : BT.709
Transfer characteristics : BT.709
Matrix coefficients : BT.709

 PBC On FOX 22 08 2020 720p Online

Audio
ID : 2
Format : AC-3
Format/Info : Audio Coding 3
Commercial name : Dolby Digital
Codec ID : A_AC3
Duration : 2 h 18 min
Bit rate mode : Constant
Bit rate : 640 kb/s
Channel(s) : 6 channels
Channel layout : L R C LFE Ls Rs
Sampling rate : 48.0 kHz
Frame rate : 31.250 FPS
Compression mode : Lossy
Stream size : 632 MiB (26%)
Title : Surround
Language : English
Service kind : Complete Main
Default : Yes
Forced : No

 

Free PBC On FOX 22 08 2020 720p Online

By Matt Lieberman: Shawn Porter will be fighting next month against #9 ,

IBF welterweight contender Sebastian Formella on August 22 on PBC on Fox,

The location is still to be determined.

Porter, 32, will be heavily favored against the fringe contender Formella.

There’s a vast difference in talent and experience between the two.

The 33-year-old Formella has yet to face a world-class fighter during his six-year pro career,

and he’s going to have problems taking a step up to this level.

Formella will be the first fight back for former IBF/WBC 147-pound champion Porter (30-3-1, 17 KOs),

since his loss to Errol Spence Jr on September 28 last year in Los Angeles, California.

Free PBC On FOX 22 08 2020 720p Online

Porter needs a confidence booster, and Formella serves the purpose for him to get an easy win.

‘Showtime’ Shawn Porter needs to put some wins together so that he can get another title shot.

Also, he wants to avenge his loss to Spence, as well as fight WBA champion Manny Pacquiao ,

and WBO champ Terence Crawford. None of those fighters are available right now. But if Porter keeps winning,

he’ll eventually get another title shot soon. He’s currently ranked #1 WBC and #10 IBF.

It’s a questionable move for PBC to schedule Porter vs. Formella on August 22,,

because that’s the same date these fights will be taking place:

  • Eleider Alvarez vs. Joe Smith Jr
  • Dillian Whyte vs. Alexander Povetkin

 PBC On FOX 22 08 2020 720p Online

Porter Taking A Tune-Up

You can’t blame Porter, 32, for taking on the little known German fighter Formella,

(22-0, 10 KOs) being that he just came through a war with Errol.

That fight was quickly the toughest of Porter’s 12-year pro career ,

due to Spence brawling with Porter from the opening round.

Initially, Spence tried to box Porter. But he was unable ,

to do so because of the pressure was putting on him.

Porter went after Spence and made him stand and fight him.

Porter thought he could wear Spence down as he’d done with many of his other opponents,

but Errol proved to have too much power, toughness, and youth.

Free PBC On FOX 22 08 2020  

Spence beat Porter at his own game by getting the better of,

him at close range with his body shots and uppercuts.

In the 10th, Spence sealed the deal by knocking Porter down with a left hook to the head.

Mike Coppinger broke the story on the Porter vs. Formell fight.

A possible match on the undercard is Alfredo Angulo (26 7, 21 KOs) vs. former ,

IBF super-middleweight champion Caleb Truax (31-4-2, 19 KOs).

[/su_expand]

 

 

 

Watch online

 

 

[su_expand more_text=”Open Videos Online” less_text=”Close Videos” height=”0″ text_color=”#0859fe” link_color=”#a74a69″ link_style=”button” more_icon=”icon: play” less_icon=”icon: stop”]

 

 

Server 1

 

 

 

 

watch now

 

 

 

Server-2

 

 

 

watch now

[/su_expand]
 

 

 

Uploaded By Site DX-TV.com

 

 

 

Download Links with High Speed   

 

 

[su_expand more_text=”Open Download Links” less_text=”Close all Links” height=”0″ text_color=”#4b9a3e” link_color=”#1b3fa8″ link_style=”button” more_icon=”icon: link” less_icon=”icon: unlink”]
 

 

Keep2Share

 

 

 

nitroflare.com

 

 

 

rapidgator.net

 

 

 

uploadgig.com

 

 

[/su_expand]
 

dx-tv.com

 

urlfree.net