Free Online WWE Raw 2019 12 02 720p

Free WWE Raw 2019 12 02 720p DX-TV

 

 

WWE RAW

 

 

 

 

dx-tv.com

 

 

 

 

Free Online WWE Raw 2019 12 02 720p

 

 

 

 

 
Complete name : WWE.Monday.Night.Raw.2019.12.02.720p.HDTV.x264-NWCHD.mp4
Format : MPEG-4
Format profile : Base Media
File size : 4.16 GiB
Duration : 2 h 6 min
Overall bit rate : 4 709 kb/s
Writing application : Lavf58.27.103

Video
ID : 1
Format : AVC
Duration : 2 h 6 min
Bit rate : 4 500 kb/s
Width : 1 280 pixels
Height : 720 pixels
Display aspect ratio : 16:9
Frame rate mode : Variable
Frame rate : 29.970 (30000/1001) FPS
Minimum frame rate : 29.155 FPS
Maximum frame rate : 29.970 FPS
Color space : YUV
Chroma subsampling : 4:2:0
Bit depth : 8 bits
Scan type : Progressive
Bits/(Pixel*Frame) : 0.163
Stream size : 3.99 GiB (96%)
Color primaries : BT.709
Transfer characteristics : BT.709
Matrix coefficients : BT.709
Codec configuration box : avcC

Audio
ID : 2
Format : AAC LC
Codec ID : mp4a-40-2
Duration : 2 h 6 min
Bit rate mode : Constant
Bit rate : 192 kb/s
Channel(s) : 2 channels
Channel layout : L R
Sampling rate : 48.0 kHz
Frame rate : 46.875 FPS (1024 SPF)
Compression mode : Lossy
Stream size : 174 MiB (4%)
Title : Stereo
Default : Yes
Alternate group : 1

 

 

 

 

 

 

Watch online

 

 

Waiting finish converting video

 

 

Server 1

 

 

 

 

 

 

 

watch now

 

 

 

 

 

 

Server 2

 

 

 

 

 

watch now

 

 

 

 

 

Server–3

 

 

 

 

 

 

 

 

 

 

Server 4

 

 

 

 

 

 

 

 

 

 

Uploaded By Site DX-TV.com

 

 

 

 

 

Free Online WWE Raw 2019 12 02 720p

 

 

 

 

 

 

Recommended For Free

 

 

 

 

1fichier.com

 

 

 

anonfile.com

 

 

 

dl.free.fr

 

 

 

 

Download with high speed Premium account

 

 

 

nitroflare.com

 

 

 

rapidgator.net

 

 

 

uploaded.net

 

 

 

 

 

 

 

 

 

 

Categories

Earn money $25 as per 1000

103