Free Online WWE Main Event 30 07 2020

Watch Free Online WWE Main Event 30 07 2020 DX-TV

 

WWE Main Event
 

 WWE Main Event

 

Free Online WWE Main Event 30 07 2020

 

Complete name : WWE.Main.Event.2020.30.07.HD DX-TV.mp4
Format : MPEG-4
Format profile : Base Media
Codec ID : isom
File size : 1.01 GiB WWE Main Event
Duration : 45 min 29 s
Overall bit rate : 3 166 kb/s
Writing application : Lavf58

Online WWE Main Event 30 07 2020

Video
ID : 1
Format : AVC
Format/Info : Advanced
Codec ID : avc1
Codec ID/Info : Advanced
Duration : 45 min 29 s
Bit rate : 3 000 kb/s
Width : 1 280 pixels
Height : 720 pixels
Display aspect ratio : 16:9
Frame rate mode : Variable
rate : 25.000 FPS
frame rate : 12.500 FPS
Maximum frame : 25.000 FPS
Color space : YUV
Chroma sub sampling : 4:2:0
Bit depth : 8 bits
Scan type : Progressive
Bits/(Pixel*Frame) : 0.130
Stream size : 976 MiB (95%)
Codec configuration box : avcC

 Online WWE Main Event 30 07 2020

Audio
ID : 2
Format : AAC LC
Format/Info : Advanced
Codec ID : mp4a-40-2
Duration : 45 min 29 s
Bit rate mode : Constant
Bit rate : 160 kb/s
Channel(s) : 2 channels WWE Main Event
Channel layout : L R 
Sampling rate : 44.1 kHz
Frame rate : 43.066 FPS
Compression mode : Lossy
Stream size : 52.2 MiB (5%)
Default : Yes
Alternate group : 1

 

 

Free Online WWE Main Event 30 07 2020

 

 

 

Watch online

 

 

Server 1

 

 

 

 

watch now

 

 

 

 

Server 2

 

 

 

watch now

 

 

 

Server-3

 

 

 

watch now

 

 

 

Uploaded By Site DX-TV.com

 

Free Online WWE Main Event 30 07 2020

 

Download with premium account Links 

 

 

Keep2Share

 

 

nitroflare.com

 

 

rapidgator.net

 

 

uploadgig.com

 

 

 

dx-tv.com

 

urlfree.net

 90 total views,  5 views today

Leave a Reply

Your email address will not be published. Required fields are marked *

This site uses Akismet to reduce spam. Learn how your comment data is processed.

%d bloggers like this: