Free Online One Championship No Surrender 31 07 2020

Watch Free Online One Championship No Surrender 31 07 2020 DX-TV

 

One Championship No Surrender
 One Championship No Surrender

Free Online One Championship No Surrender 31 07 2020

 

 

 

Complete name : One.Championship.No.Surrender.WEBRip.h264-TJ.mp4
Format : MPEG-4
Format profile : Base Media
Codec ID : isom
File size : 1.15 GiB
Duration : 2 h 34 min
Overall bit rate : 1 059 kb/s
Writing application : Lavf One Championship No Surrender

 Online One Championship No Surrender 31 07 20

Video
ID : 1
Format : AVC
Duration : 2 h 34 min
Bit rate : 925 kb/s
Width : 854 pixels
Height : 480 pixels
Display ratio : 16:9
Frame mode : Variable 
rate : 25.000 FPS One Championship No Surrender
frame rate : 25.014 FPS
Color space : YUV
Chroma sub sampling : 4:2:0
Bit depth : 8 bits
Scan type : Progressive
Bits/(Pixel*Frame) : 0.090
Stream size : 1.00 GiB (87%)
Color range : Limited
primaries : BT.709
Transfer characteristics : BT.709
Matrix coefficients : BT.709
Codec configuration box : avcC

Free  One Championship No Surrender 31 07 20

Audio
ID : 2
Format : AAC LC
Format/Info : Advanced
Codec ID : mp4a-40-2
Duration : 2 h 34 min
Bit rate mode : Constant
Bit rate : 128 kb/s
Channel(s) : 2 channels
Channel layout : L R
Sampling rate : 44.1 kHz
Frame rate : 43.066 FPS One Championship No Surrender
Compression mode : Lossy
Stream size : 142 MiB (12%)
Default : Yes
Alternate group : 1

 

ONE Championship: No Surrender Results

ONE Championship returned to action on Friday, July 31 with No Surrender,

marking the promotion’s first event since the onset of the coronavirus pandemic.

Joining a number of the world’s biggest MMA outfits, including the UFC, Bellator MMA, and Invicta FC,

ONE’s No Surrender card was held in an empty venue, sans fans. For the first event back, the festivities took place in Bangkok,

Thailand with a heavyweight emphasis on Muay Thai. In fact, two of the promotion’s Muay Thai titles were on the line at No Surrender,

at both flyweight and featherweight.

 

Free Online One Championship No Surrender 31 07 2020

 

 

 

Watch online

 

 

Server 1

 

 

 

 

watch now

 

 

 

 

Server 2

 

 

 

watch now

 

 

 

Server-3

 

 

 

One Championship No Surrender

 

 

 

Uploaded By Site DX-TV.com

 

 

 

Download with premium account Links 

 

 

Keep2Share

 

 

nitroflare.com

 

 

rapidgator.net

 

 

uploadgig.com

 

 

 

dx-tv.com

 

urlfree.net

 52 total views,  6 views today

Leave a Reply

Your email address will not be published. Required fields are marked *

This site uses Akismet to reduce spam. Learn how your comment data is processed.

%d bloggers like this: