Free Online NJPW Sengoku Lord in Nagoya 720p 25 07 2020

Watch Free Online NJPW Sengoku Lord in Nagoya 720p 25 07 2020 DX-TV

 

Free NJPW Sengoku
NJPW Sengoku Lord

Free Online NJPW Sengoku Lord in Nagoya 720p 25 07 2020

 

 

 

Complete name : 2020.07.25.NJPW.Sengoku.Lord.in.Nagoya.2020.(TV.Asahi.1).mp4
Format : MPEG-4
Format profile : Base Media
Codec ID : isom Free NJPW Sengoku
File size : 4.66 GiB
Duration : 3 h 12 min
Overall bit rate : 3 454 kb/s
application : Lavf58.29.100

 Online NJPW Sengoku Lord in Nagoya 720p 25 07 2020

Video
ID : 1
Format : AVC
Codec ID/Info : Advanced
Duration : 3 h 12 min
Bit rate : 3 246 kb/s
Width : 1 280 pixels
Height : 720 pixels Free NJPW Sengoku
Display aspect ratio : 16:9
rate mode : Constant
Frame rate : 60.000 FPS
Color space : YUV
Chroma sub sampling : 4:2:0
Bit depth : 8 bits Free NJPW Sengoku
Scan type : Progressive
Bits/(Pixel*Frame) : 0.059
Stream size : 4.38 GiB (94%)

Free NJPW Sengoku Lord in Nagoya 

Audio
ID : 2
Format : AAC LC
Format/Info : Advanced
Codec ID : mp4a-40-2
Duration : 3 h 12 min Free NJPW Sengoku
Bit rate mode : Constant
Bit rate : 192 kb/s
Channel(s) : 2 channels
Channel layout : L R
Sampling rate : 44.1 kHz
rate : 43.066 FPS (1024 SPF)
Compression mode : Lossy
Stream size : 265 MiB (6%)
Default : Yes Free NJPW Sengoku
Alternate group : 1

NJPW Sengoku Lord in Nagoya

5th Match: Kazuchika Okada vs Yujiro Takahashi

Singles record: 2-0 Okada

Yujiro Takahashi’s interference during the New Japan Cup final in Osaka Jo Hall,,

help set up EVIL to reign atop New Japan Pro-Wrestling and BULLET CLUB.

It was a slice of history repeating for the Tokyo Pimp; six years prior at Dontaku 2014,

it was Yujiro’s defection from CHAOS to BULLET CLUB that saw AJ Styles take IWGP gold at Okada’s expense. 

Then, Yujiro claims with disgust, Okada had bigger fish to fry than Yujiro and his defection.

The Rainmaker would go on to treat his G1 Climax bout with Takahashi like any other group match,

before winning the tournament and heading to the Tokyo Dome. ‘You never made a fuss about it,

and that’s why I hate you Yujiro stated backstage in Osaka ,

after a furious Dominion assault aided and abetted by Gedo.

Takahashi makes no bones that he doesn’t have the superstar status of his opponent in Nagoya.

Free Online NJPW Sengoku Lord in Nagoya 720p 25 07 2020

NJPW Sengoku Lord in Nagoya

 

 

Watch online

 

 

Server 1

 

 

 

 

watch now

 

 

 

 

Server 2

 

 

 

Free NJPW Sengoku

 

 

 

Server-3

 

 

 

Free NJPW Sengoku

 

 

 

Uploaded By Site DX-TV.com

 

 

 

Download with premium account Links 

 

 

Keep2Share

 

 

nitroflare.com

 

 

rapidgator.net

 

 

uploadgig.com

 

 

 

dx-tv.com

 

urlfree.net

Leave a Reply

Your email address will not be published. Required fields are marked *

This site uses Akismet to reduce spam. Learn how your comment data is processed.