Free NJPW Strong 2020 11 20 Ep16 English /Japan DX-TV

Watch Free NJPW Strong 2020 11 20 Ep16 English /Japan DX-TV

 

Free NJPW Strong

 

 NJPW Strong 2020 11 20

 

[su_expand more_text=”Show More Info” less_text=”Close all Info” height=”30″ text_color=”#000000″ link_color=”#e25f8b” link_style=”button” more_icon=”icon: arrow-down” less_icon=”icon: arrow-up”]

 

Complete name : NJPW.2020.11.20.Strong.Episode.16.ENGLISH.720p.WEB.h264-LATE.mkv
Format : Matroska
Format version : Version 4
File size : 959 MiB
Duration : 1 h 5 min
Overall bit rate : 2 032 kb/s

Free NJPW Strong

VideoID : 1
Format : AVC
Duration : 1 h 5 min
Bit rate : 1 904 kb/s
Width : 1 280 pixels
Height : 720 pixels
Display aspect ratio : 16:9
Frame rate mode : Constant
Frame rate : 30.000 FPS
Color space : YUV
Chroma sampling : 4:2:0
Bit depth : 8 bits
Scan type : Progressive
Bits/(Pixel*Frame) : 0.069
Stream size : 899 MiB
Forced : No

Free NJPW  

Audio
ID : 2
Format : AAC LC
Format/Info : Advanced Audio
Codec ID : A_AAC-2
Duration : 1 h 5 min
Bit rate : 125 kb/s
Channel(s) : 2 channels
Channel layout : L R
Sampling rate : 44.1 kHz
Frame rate : 43.066 FPS
Compression mode : Lossy
Delay relative to video : -23 ms
Stream size : 59.1 MiB
Language : English
Default : Yes
Forced : No

Free NJPW Strong

Complete name : NJPW.2020.11.20.Strong.Episode.16.JAPANESE.720p.WEB.h264-LATE.mkv
Format : Matroska
Format version : Version 4
File size : 959 MiB
Duration : 1 h 5 min
Overall bit rate : 2 032 kb/s

 NJPW Strong

Video
ID : 1
Format : AVC
Duration : 1 h 5 min
Bit rate : 1 904 kb/s
Width : 1 280 pixels
Height : 720 pixels
Display aspect ratio : 16:9
Frame rate mode : Constant
Frame rate : 30.000 FPS
Color space : YUV
Chroma subsampling : 4:2:0
Bit depth : 8 bits
Scan type : Progressive
Bits/(Pixel*Frame) : 0.069
Stream size : 899 MiB
Forced : No

 NJPW Strong

Audio
ID : 2
Format : AAC LC
Format/Info : Advanced Audio
Codec ID : A_AAC-2
Duration : 1 h 5 min
Bit rate : 125 kb/s
Channel(s) : 2 channels
Channel layout : L R
Sampling rate : 44.1 kHz
Frame rate : 43.066 FPS
Compression mode : Lossy
Delay relative to video : -23 ms
Stream size : 59.1 MiB
Language : English
Default : Yes
Forced : No

 

 

[/su_expand]

 

 

Watch online

 

 

Server 1

 

 

 

 

 

Free NJPW Strong

 

 

Server-2

 

 

 

 

 

 

 

 

Uploaded By Site DX-TV.com

 

watch Free NJPW Strong

 

Download Free Links with normal and high Speed [ more 14 hosts ]  

 

[su_expand more_text=”Show Hosts Info” less_text=”Close all Info” height=”30″ text_color=”#000000″ link_color=”#e25f8b” link_style=”button” more_icon=”icon: arrow-down” less_icon=”icon: arrow-up”]

 

 

hexupload.net – clicknupload.co – www.multiup.org

– uptobox.com – anonfiles.com – userscloud.com –

dropapk.to alfafile.net – ddownload.com – rockfile.co

– 1fichier.com – filedown.org – katfile.com – filerio.in

 

 

[/su_expand]

 

ENG

http://shrt10.com/rUfFjeCV9
http://shrt10.com/6DpzGo0J3
http://shrt10.com/Aptq78w
http://shrt10.com/TsOob1
http://shrt10.com/VcpnUn
http://shrt10.com/AHNJiv6rx
http://shrt10.com/kVpXH
http://shrt10.com/dC8wLCMWP

 

Free NJPW Strong

 

 

Japan

http://shrt10.com/HtKDqVDzd
http://shrt10.com/U0XGXfK
http://shrt10.com/MeMogO
http://shrt10.com/RjZ2eX1r
http://shrt10.com/Tc4OCHNq3
http://shrt10.com/Nj56wojKd
http://shrt10.com/p9vyJ
http://shrt10.com/azG0e

 

 

 

 

Download Links with premium High Speed   

 

 

NJPW Strong

 

dropapk.to

http://shrt10.com/BZ63WAN9D
http://shrt10.com/jf2zdmPgP

 

 

nitroflare.com

http://shrt10.com/6Pgq1
http://shrt10.com/Wt6rRik

 

 

rapidgator.net

http://shrt10.com/QnZ7xx
http://shrt10.com/WocKQOo

 

 

uploaded.net

http://shrt10.com/1znxE
http://shrt10.com/mEWxN

 

 

uploadgig.com

http://shrt10.com/cXnrHY5
http://shrt10.com/JPnme

 

 

 

 

dx-tv.com

 

urlfree.net

You May Also Like

Leave a Reply

Your email address will not be published. Required fields are marked *

This site uses Akismet to reduce spam. Learn how your comment data is processed.