Free NJPW Road to Power Struggle Super JR Japan 11/03/2019

Free NJPW Road to Power Struggle Super JR Japan 11/03/2019 DX-TV

 

 

Power Struggle Super JR

 

 

 

 

dx-tv.com

 

 

 

 

Free NJPW Road to Power Struggle Super JR Japan 11/03/2019

 

 

 

 

Complete name : NJPW Road to Power Struggle Super JR 11-03-2019 Japan WEB x264 DX-TV.mp4
Format : MPEG-4
Format profile : Base Media / Version 2
Codec ID : mp42 (mp42)
File size : 2.86 GiB
Duration : 4 h 12 min
Overall bit rate : 1 622 kb/s

Video
ID : 1
Format : AVC
Format/Info : Advanced Video Codec
Codec ID : avc1
Codec ID/Info : Advanced Video Coding
Duration : 4 h 12 min
Bit rate : 1 499 kb/s
Width : 960 pixels
Height : 540 pixels
Display aspect ratio : 16:9
Frame rate mode : Constant
Frame rate : 30.000 FPS
Color space : YUV
Chroma subsampling : 4:2:0
Bit depth : 8 bits
Scan type : Progressive
Bits/(Pixel*Frame) : 0.096
Stream size : 2.64 GiB (92%)
Language : English
Codec configuration box : avcC

Audio
ID : 2
Format : AAC LC
Format/Info : Advanced Audio Codec Low Complexity
Codec ID : mp4a-40-2
Duration : 4 h 12 min
Source duration : 4 h 12 min
Bit rate mode : Constant
Bit rate : 116 kb/s
Channel(s) : 2 channels
Channel layout : L R
Sampling rate : 44.1 kHz
Frame rate : 43.066 FPS (1024 SPF)
Compression mode : Lossy
Stream size : 209 MiB (7%)
Source stream size : 209 MiB (7%)
Title : Stereo
Language : English
Default : Yes

 

 

 

 

 

 

Watch online

 

 

Server 1

 

 

 

 

watch now

 

 

 

 

 

 

Server 2

 

 

 

 

 

watch now

 

 

 

 

 

 

 

 

 

Uploaded By Site DX-TV.com

 

 

 

 

 

 

Free NJPW Road to Power Struggle Super JR Japan 11/03/2019

 

 

 

 

 

 

Recommended For Free

 

 

 

 

earn4files.com

 

 

clicknupload.org

 

 

 

 

 

Download with high speed with Premium account

 

 

 

 

nitroflare.com

 

 

 

rapidgator.net

 

 

 

uploaded.net

 

 

 

uploadgig.com

 

 

 

 

 

 

Leave a Reply

Your email address will not be published. Required fields are marked *

1 × 2 =