Free MMA LFA 87 720p 31 07 2020 Full Show

Watch Free MMA LFA 87 720p 31 07 2020 Full Show DX-TV

 

LFA 87
LFA 87

Free MMA LFA 87 720p 31 07 2020 Full Show

 

 

 

Complete name : LFA.87.720p.WEB-DL.H264.Fight-BB.mp4
Format : MPEG-4
Format profile : Base Media
Codec ID : isom
File size : 4.52 GiB
Duration : 3 h 28 min
Overall bit rate mode : Variable
Overall bit rate : 3 099 kb/s
Writing application : LFA 87

Free MMA LFA 87 720p 31 07 2020 Full Show

Video
ID : 1
Format : AVC
Format/Info : Advanced
Codec ID : avc1
Codec ID/Info : Advanced
Duration : 3 h 28 min
Bit rate mode : Variable
Bit rate : 2 958 kb/s
Maximum bit rate : 3 159 kb/s
Width : 1 280 pixels
Height : 720 pixels LFA 87
Display aspect ratio : 16:9
Frame rate mode : Variable
rate : 30.000 FPS
frame rate : 29.412 FPS
Standard : NTSC
Color space : YUV
Chroma sub sampling : 4:2:0
Bit depth : 8 bits
Scan type : Progressive
Bits/(Pixel*Frame) : 0.107
Stream size : 4.32 GiB (95%)
Color primaries : BT.709
Transfer characteristics : BT.709
Matrix coefficients : BT.709
Codec configuration box : avcC

 MMA LFA 87 720p 31 07 2020 Full Show

Audio
ID : 2
Format : AAC LC
Format/Info : Advanced
Codec ID : mp4a-40-2
Duration : 3 h 28 min
Bit rate mode : Constant
Bit rate : 132 kb/s
Channel(s) : 2 channels
Channel layout : L R
Sampling rate : 48.0 kHz
Frame rate : 46.875 FPSLFA 87
Compression mode : Lossy
Stream size : 197 MiB (4%)
Default : Yes
Alternate group : 1

Free  LFA 87 720p 31 07 2020 Full Show

Nick Browne def. Ben Egli
unanimous decision (28-29, 29-28, 30-27) – Round 3, 5:00
Joaquin Buckley def. Jackie Gosh
TKO (punches) – Round 2, 1:47
Kai Kamaka III def. Michael Stack
unanimous decision (29-28, 29-28, 29-28) – Round 3, 5:00
Gerald Scott def. Keith Phathaem
TKO (punches) – Round 2, 4:33
Zac Pauga def. Zac Cavender LFA 87
unanimous decision (30-27, 30-27, 29-28) – Round 3, 5:00

 

Free MMA LFA 87 720p 31 07 2020 Full Show

 

 

 

Watch online

 

 

Server 1

 

 

 

 

watch now

 

 

 

 

Server 2

 

 

 

LFA 87

 

 

 

Server-3

 

 

 

watch now

 

 

 

Uploaded By Site DX-TV.com

 

 

 

Download with premium account Links 

 

 

Keep2Share

 

 

nitroflare.com

 

 

rapidgator.net

 

 

uploadgig.com

 

 

 

dx-tv.com

 

urlfree.net

 54 total views,  9 views today

Leave a Reply

Your email address will not be published. Required fields are marked *

This site uses Akismet to reduce spam. Learn how your comment data is processed.

%d bloggers like this: