Free MMA Invicta FC 41 720p Full Show

Watch Free Online 720p Invicta FC 41 DX-TV

 

Free MMA 
 

 Free MMA

 

 

Free MMA Invicta FC 41 720p Full Show

 

 

 

Complete name : Invicta.FC.41.720p.WEB-DL.mp4
Format : MPEG-4
Format profile : Base Media
Codec ID : isom
File size : 3.23 GiB Free MMA 
Duration : 2 h 27 min
Overall bit rate mode : Variable
Overall bit rate : 3 143 kb/s
Writing application : Lavf58

 MMA Invicta FC 41 720p Full Show

Video
ID : 1
Format : AVC
Duration : 2 h 27 min
Bit rate mode : Variable
Bit rate : 3 003 kb/s
Maximum bit rate : 3 159 kb/s
Width : 1 280 pixels
Height : 720 pixels
Display aspect ratio : 16:9
Frame rate mode : Variable
Frame rate : 30.000 FPS
Minimum rate : 10.000 FPS
Maximum rate : 90 FPS
Standard : NTSC
Color space : YUV
Chroma sub sampling : 4:2:0
Bit depth : 8 bits Free MMA 
Scan type : Progressive
Bits/(Pixel*Frame) : 0.109
Stream size : 3.09 GiB (96%)

Color primaries : BT.709
Transfer characteristics : BT.709
Matrix coefficients : BT.709
Codec configuration box : avcC

Free MMA Invicta FC 41 720p Full Show

Audio
ID : 2
Format : AAC LC
Format/Info : Advanced Audio
Codec ID : mp4a-40-2
Duration : 2 h 27 min
Bit rate mode : Constant
Bit rate : 132 kb/s
Channel(s) : 2 channels
Channel layout : L R
Sampling rate : 48.0 kHz
Frame rate : 46.875 FPS  Free MMA 
Compression mode : Lossy
Stream size : 138 MiB (4%)
Default : Yes
Alternate group : 1

 

 

Free MMA Invicta FC 41 720p Full Show

 

 

 

Watch online

 

 

Server 1

 

 

 

 

watch now

 

 

 

 

Server 2

 

 

 

watch now

 

 

 

Server-3

 

Free Invicta FC 41 720p Full Show

 

Free MMA

 

 

 

Uploaded By Site DX-TV.com

 

 

 

Download with premium account Links 

 

 

Keep2Share

 

 

nitroflare.com

 

 

rapidgator.net

 

 

uploadgig.com

 

 

 

dx-tv.com

 

urlfree.net

 84 total views,  7 views today

Leave a Reply

Your email address will not be published. Required fields are marked *

This site uses Akismet to reduce spam. Learn how your comment data is processed.

%d bloggers like this: