Free ICW No Holds Barred Volume 4 Online

Watch Free ICW No Holds Barred Volume 4 Online DX-TV

 

Free ICW No Holds Online

 

 ICW No Holds Barred Volume 4

Free ICW No Holds Barred Volume 4 Online

 

 

Complete name : ICW No Holds Barred Volume 4 Deathmatch Circus.mp4
Format : MPEG-4
Format profile : Base Media
Codec ID : isom
File size : 1.59 GiB
Duration : 2 h 15 min Free ICW No Holds Online
rate mode : Variable
Overall bit rate : 1 680 kb/s

Video
ID : 2
Format : AVC
Duration : 2 h 15 min
Source duration : 2 h 15 min
Bit rate : 1 536 kb/s
Width : 1 280 pixels
Height : 720 pixels
Display aspect ratio : 16:9
Frame rate mode : Variable Free ICW No Holds Online
Frame rate : 29.970 FPS
Minimum frame rate : 5.975 FPS
Color space : YUV
Chroma sampling : 4:2:0
Bit depth : 8 bits
Scan type : Progressive
Bits/(Pixel*Frame) : 0.056
Stream size : 1.46 GiB (92%)
Source stream size : 1.46 GiB (92%)

Audio
ID : 3
Format : AAC LC
Format/Info : Advanced Audio
Codec ID : mp4a-40-2
Duration : 2 h 15 min
Bit rate mode : Variable
Bit rate : 129 kb/s
Maximum bit rate : 391 kb/s
Channel(s) : 2 channels Free ICW No Holds Online
Channel layout : L R
Sampling rate : 48.0 kHz
Frame rate : 46.875 FPS (1024 SPF)
Compression mode : Lossy
Stream size : 125 MiB (8%)

 

Saturday, August 8th, 2020

From Millville, New Jersey – Featuring:

  • Mance Warner vs Tony Deppen
  • Dale Patricks vs Reed Bentley
  • Jimmy Lloyd vs Brandon Kirk
  • Taipei Death Match: Eric Ryan vs Eddy Only
  • Alex Ocean vs Alex Colon Free ICW No Holds Online
  • SHLAK vs Casanova Valentine
  • AKIRA vs John Wayne Murdoch

Free ICW No Holds Barred Volume 4 Online

 

Singles Match
Mance Warner defeats Tony Deppen (9:06)
:::: Not enough votes for total rating. ::::
Singles Match
Reed Bentley defeats Dale Patricks (11:15)
:::: Not recommended yet. ::::
Singles Match
Jimmy Lloyd defeats Brandon Kirk (9:03)
:::: Not recommended yet. ::::
Taipei Death Match
Eric Ryan defeats Eddy Only (6:52)
:::: Not enough votes for total rating. ::::
Singles Match
Alex Ocean defeats Alex Colon by referee’s decision (9:50)
:::: Not recommended yet. ::::
Singles Match
SHLAK defeats Casanova Valentine (10:31)
:::: Not enough votes for total rating. ::::
Singles Match
John Wayne Murdoch defeats Akira (14:20)

Watch online

 

All Watching online has been updated with correct link show

 

Server 1

 

 

 

 

watch now

 

 

 

 

Server 2

 

 

 

watch now

 

 

 

Server-3

 

 

 

watch now

 

 

 

Uploaded By Site DX-TV.com

 

 

 

Download with premium account Links 

 

All Links has been updated with correct link show

 

Keep2Share

 

 

 

nitroflare.com

 

 

 

rapidgator.net

 

 

 

uploadgig.com

 

 

dx-tv.com

 

urlfree.net

9 Comments

  1. Hey friend, the premium link for rapidgator on this one is actually for a UFC event. Any chance you could reupload the ICW event?

  2. Hello my friend, I have a question. Is it possible to reupload ICW No Holds Barred Volume 1 ? I missed it somehow.

Comments are closed.