Free Download WWE SummerSlam 2019 1080i

Free Download WWE SummerSlam 2019 1080i HDTV Backhaul TrollHD DX-TV

 

 

 

WWE SummerSlam 2019 1080i
WWE SummerSlam 2019 1080i

 

 

 

 

 

dx-tv.com

 

 

 

shrt10.com

 

 

 

 

 

 

 

 

 

 

Free Download WWE SummerSlam 2019 1080i 

 

 

 

 

 

 

Shrt10.com

now we have new very high rate

we are paying with up to $25/1000 visits.​

you can start now

Minimum payment $5

  • you can earn up to 25 $ / 1000 unique views.

  • Payout via PayPal, Webmoney, BitCoins.

  • Real time stats, updated every 15 minute

  • You earn for all countries traffic

  • Payments max weekly 

  • Advanced statistics

 

 

 

 

 

 

 

 

Free Download WWE SummerSlam 2019 1080i HDTV

 

 

 

 

 

Complete name : WWE SummerSlam (2019) 1080i HDTV Backhaul MPA2.0 H.264-TrollHD.mkv
Format : Matroska
Format version : Version 4
File size : 34.8 GiB
Duration : 3 h 30 min
Overall bit rate : 23.7 Mb/s

Video
ID : 1
Format : AVC
Format/Info : Advanced Video Codec
Codec ID : V_MPEG4/ISO/AVC
Duration : 3 h 30 min
Bit rate : 21.5 Mb/s
Width : 1 920 pixels
Height : 1 080 pixels
Display aspect ratio : 16:9
Frame rate mode : Variable
Frame rate : 59.940 (59940/1000) FPS
Original frame rate : 29.970 (30000/1001) FPS
Color space : YUV
Chroma subsampling : 4:2:2
Bit depth : 8 bits
Scan type : Interlaced
Scan type, store method : Separated fields
Scan order : Top Field First
Bits/(Pixel*Frame) : 0.173
Stream size : 31.6 GiB (91%)
Default : Yes
Forced : No
Color range : Limited
Color primaries : BT.709
Transfer characteristics : BT.709
Matrix coefficients : BT.709

Audio #1
ID : 2
Format version : Version 1
Format profile : Layer 2
Codec ID : A_MPEG/L2
Codec ID/Hint : MP2
Duration : 3 h 30 min
Bit rate mode : Constant
Bit rate : 384 kb/s
Channel(s) : 2 channels
Sampling rate : 48.0 kHz
Frame rate : 41.667 FPS (1152 SPF)
Compression mode : Lossy
Stream size : 577 MiB (2%)
Language : English
Default : Yes
Forced : No

Audio #2
ID : 3
Format version : Version 1
Format profile : Layer 2
Codec ID : A_MPEG/L2
Codec ID/Hint : MP2
Duration : 3 h 30 min
Bit rate mode : Constant
Bit rate : 256 kb/s
Channel(s) : 2 channels
Sampling rate : 48.0 kHz
Frame rate : 41.667 FPS (1152 SPF)
Compression mode : Lossy
Stream size : 385 MiB (1%)
Language : Spanish
Default : No
Forced : No

Audio #3
ID : 4
Format version : Version 1
Format profile : Layer 2
Codec ID : A_MPEG/L2
Codec ID/Hint : MP2
Duration : 3 h 30 min
Bit rate mode : Constant
Bit rate : 256 kb/s
Channel(s) : 2 channels
Sampling rate : 48.0 kHz
Frame rate : 41.667 FPS (1152 SPF)
Compression mode : Lossy
Stream size : 385 MiB (1%)
Language : French
Default : No
Forced : No

Audio #4
ID : 5
Format version : Version 1
Format profile : Layer 2
Codec ID : A_MPEG/L2
Codec ID/Hint : MP2
Duration : 3 h 30 min
Bit rate mode : Constant
Bit rate : 256 kb/s
Channel(s) : 2 channels
Sampling rate : 48.0 kHz
Frame rate : 41.667 FPS (1152 SPF)
Compression mode : Lossy
Stream size : 385 MiB (1%)
Language : Hindi
Default : No
Forced : No

Audio #5
ID : 6
Format version : Version 1
Format profile : Layer 2
Codec ID : A_MPEG/L2
Codec ID/Hint : MP2
Duration : 3 h 30 min
Bit rate mode : Constant
Bit rate : 256 kb/s
Channel(s) : 2 channels
Sampling rate : 48.0 kHz
Frame rate : 41.667 FPS (1152 SPF)
Compression mode : Lossy
Stream size : 385 MiB (1%)
Language : Portuguese
Default : No
Forced : No

Audio #6
ID : 7
Format version : Version 1
Format profile : Layer 2
Codec ID : A_MPEG/L2
Codec ID/Hint : MP2
Duration : 3 h 30 min
Bit rate mode : Constant
Bit rate : 256 kb/s
Channel(s) : 2 channels
Sampling rate : 48.0 kHz
Frame rate : 41.667 FPS (1152 SPF)
Compression mode : Lossy
Stream size : 385 MiB (1%)
Language : German
Default : No
Forced : No

Audio #7
ID : 8
Format version : Version 1
Format profile : Layer 2
Codec ID : A_MPEG/L2
Codec ID/Hint : MP2
Duration : 3 h 30 min
Bit rate mode : Constant
Bit rate : 256 kb/s
Channel(s) : 2 channels
Sampling rate : 48.0 kHz
Frame rate : 41.667 FPS (1152 SPF)
Compression mode : Lossy
Stream size : 385 MiB (1%)
Language : Russian
Default : No
Forced : No

Audio #8
ID : 9
Format version : Version 1
Format profile : Layer 2
Codec ID : A_MPEG/L2
Codec ID/Hint : MP2
Duration : 3 h 30 min
Bit rate mode : Constant
Bit rate : 256 kb/s
Channel(s) : 2 channels
Sampling rate : 48.0 kHz
Frame rate : 41.667 FPS (1152 SPF)
Compression mode : Lossy
Stream size : 385 MiB (1%)
Language : Japanese
Default : No
Forced : No

 

 

 

 

 

 

Uploaded By Site DX-TV.com

 

 

 

Downloading Links

 

 

 

 

http://nitroflare.com/view/4CC27ECFF183353/WWE_SummerSlam_%282019%29_1080i_HDTV_Backhaul_MPA2.0_H.264-TrollHD.rar%C3%BB.part1.rar
 

 
http://nitroflare.com/view/E8A0A9D7A3362FA/WWE_SummerSlam_%282019%29_1080i_HDTV_Backhaul_MPA2.0_H.264-TrollHD.rar%C3%BB.part2.rar
 

 
http://nitroflare.com/view/4EE39B0181E4FA7/WWE_SummerSlam_%282019%29_1080i_HDTV_Backhaul_MPA2.0_H.264-TrollHD.rar%C3%BB.part3.rar
 

 
http://nitroflare.com/view/11EA63088CEE064/WWE_SummerSlam_%282019%29_1080i_HDTV_Backhaul_MPA2.0_H.264-TrollHD.rar%C3%BB.part4.rar
 

 
http://nitroflare.com/view/A1521386B8A1531/WWE_SummerSlam_%282019%29_1080i_HDTV_Backhaul_MPA2.0_H.264-TrollHD.rar%C3%BB.part5.rar
 

 
http://nitroflare.com/view/6F1CBE90825CD45/WWE_SummerSlam_%282019%29_1080i_HDTV_Backhaul_MPA2.0_H.264-TrollHD.rar%C3%BB.part6.rar

 

 http://nitroflare.com/view/1DEFA5347460191/WWE_SummerSlam_%282019%29_1080i_HDTV_Backhaul_MPA2.0_H.264-TrollHD.rar%C3%BB.part7.rar
 

 
http://nitroflare.com/view/AB11BB2169551E7/WWE_SummerSlam_%282019%29_1080i_HDTV_Backhaul_MPA2.0_H.264-TrollHD.rar%C3%BB.part8.rar
 

 

 
https://rapidgator.net/file/1af8d1d6950f1a333e5be6c4e7942343
 

 
https://rapidgator.net/file/fc19ef68b738b728dc3d794d9a236321
 

 
https://rapidgator.net/file/ade95dca30518364c08ab9809276b4e0
 

 
https://rapidgator.net/file/f7fbca66fb4e0a727154aaeb68c7a72d
 

 
https://rapidgator.net/file/60bd838c7ad39816ab553d51ee3f956f
 

 
https://rapidgator.net/file/13ee9309f7f602ad9760e237cc29590c
 

 
https://rapidgator.net/file/b8d9c5ff1f04a92075ce34a0901143b2
 

 
https://rapidgator.net/file/a094bba609cd7b3661077168a0fcb4e4
 

 

 
http://ul.to/dv3zr1zj
 

 
http://ul.to/9o4410gk
 

 
http://ul.to/4cpvyxuh
 

 
http://ul.to/scyzhmlg
 

 
http://ul.to/368nouae
 

 
http://ul.to/y97txe4n
 

 
http://ul.to/b9mmbg15
 

 
http://ul.to/f65bnukv
 

 

 

Leave a Reply

Your email address will not be published. Required fields are marked *

seven + 10 =