Free Download UFC 244 1080p Prelims

Free Download UFC 244 1080p Prelims DX-TV

 

 

wwe raw

 

 

 

 

dx-tv.com

 

 

 

 

Free Download UFC 244 1080p Prelims

 

 

 

 

 
Complete name : UFC.244.Prelims.1080p.HDTV.DD2.0.H.264-JustHD.ts
Format : MPEG-TS
File size : 5.88 GiB
Duration : 1 h 37 min
Overall bit rate mode : Variable
Overall bit rate : 8 603 kb/s

Video
Format : AVC
Format settings, GOP : M=4, N=45
Codec ID : 27
Duration : 1 h 37 min
Bit rate : 7 984 kb/s
Width : 1 920 pixels
Height : 1 080 pixels
Display aspect ratio : 16:9
Frame rate : 25.000 FPS
Standard : Component
Color space : YUV
Chroma subsampling : 4:2:0
Bit depth : 8 bits
Scan type : Progressive
Bits/(Pixel*Frame) : 0.154
Stream size : 5.46 GiB (93%)
Color range : Limited
Color primaries : BT.709
Transfer characteristics : BT.709
Matrix coefficients : BT.709

Audio
Format : AC-3
Commercial name : Dolby Digital
Codec ID : 129
Duration : 1 h 37 min
Bit rate mode : Constant
Bit rate : 192 kb/s
Channel(s) : 2 channels
Channel layout : L R
Sampling rate : 48.0 kHz
Frame rate : 31.250 FPS (1536 SPF)
Compression mode : Lossy
Stream size : 134 MiB (2%)
Language : English

 

 

 

 

 

 

Watch online

 

 

Waiting finish converting video

 

 

Server 1

 

 

 

 

 

 

 


 

 

 

 

 

Server 2

 

 

 

 

 

 

 

 

 

 

 

 

 

 

 

Uploaded By Site DX-TV.com

 

 

 

 

 

Free Download UFC 244 1080p Prelims

 

 

 

 

 

 

Recommended For Free

 

 

 

 

earn4files.com

 

 

 

Download with high speed with Premium account

 

 

 

 

nitroflare.com

 

 

 

rapidgator.net

 

 

 

uploadgig.com

 

 

 

 

 

 

Leave a Reply

Your email address will not be published. Required fields are marked *

eleven + 20 =