Free Bellator 244 Prelims 720p Full Show Online

Watch Free Bellator 244 Prelims 720p WEB DX-TV

 

Free Bellator 244 Prelims

 

 Free Bellator 244 Prelims

Free Bellator 244 Prelims 720p Full Show Online

 

 

 

[su_expand more_text=”Show More Info” less_text=”Close all Info” height=”30″ text_color=”#000000″ link_color=”#e25f8b” link_style=”button” more_icon=”icon: arrow-down” less_icon=”icon: arrow-up”]

 

Complete name : Bellator 244 Prelims 720p WEB H264 DX-TV.com.mp4
Format : MPEG-4
Format profile : Base Media
Codec ID : isom (mp41/avc1)
File size : 3.16 GiB
Duration : 2 h 25 min
Overall bit rate mode : Variable
Overall bit rate : 3 114 kb/s

 Bellator 244 Prelims 720p  

Video
ID : 2
Format : AVC
Codec ID/Info : Advanced
Duration : 2 h 25 min
Bit rate mode : Variable
Bit rate : 3 012 kb/s
Maximum bit rate : 3 104 kb/s
Width : 1 280 pixels
Height : 720 pixels
Display aspect ratio : 16:9
Frame rate mode : Constant
rate : 29.970 (30000/1001) FPS
Standard : NTSC
Color space : YUV
Chroma sampling : 4:2:0
Bit depth : 8 bits
Scan type : Progressive
Bits/(Pixel*Frame) : 0.109
Stream size : 3.05 GiB (97%)
Language : English
Color range : Limited
Color primaries : BT.709
Transfer characteristics : BT.709
Matrix coefficients : BT.709
mdhd_Duration : 116129
Codec configuration box : avcC

Free Bellator 244 Prelims 720p Full Show Online

Audio
ID : 1
Format : AAC LC SBR
Format/Info : Advanced Audio
Commercial name : HE-AAC
Format settings : Implicit
Codec ID : mp4a-40-2
Duration : 2 h 25 min
Bit rate mode : Variable
Bit rate : 96.0 kb/s
Maximum bit rate : 150 kb/s
Channel(s) : 2 channels
Channel layout : L R
Sampling rate : 48.0 kHz
Frame rate : 23.438 FPS (2048 SPF)
Compression mode : Lossy
Stream size : 98.3 MiB (3%)
Language : English
Encoded date : UTC 2020-08-22  
Tagged date : UTC 2020-08-22 

Free Bellator 244 Prelims 720p Full Show Online

Text #1
ID : 2-CC1
Format : EIA-608
Muxing mode : SCTE 128 / DTVCC Transport
Muxing mode, more info : Muxed in Video #1
Duration : 2 h 25 min
Bit rate mode : Constant
Stream size : 0.00 Byte (0%)
CaptionServiceName : CC1

Text #2
ID : 2-1
Format : EIA-708
Muxing mode : SCTE 128 / DTVCC Transport
Muxing mode, more info : Muxed in Video #1
Duration : 2 h 25 min
Bit rate mode : Constant
Stream size : 0.00 Byte (0%)

 

Bellator 244 Full Card 

 

Yaroslav Amosov vs. Mark Lemminger

Adam Piccolotti vs. Sidney Outlaw

Erik Perez vs. Joshua Hill

Lucas Brennan vs. Will Smith

Vladimir Tokov vs. Chris Gonzalez

Vladyslav Parubchenko vs. John de Jesus

Weber Almeida vs. Salim Mukhidinov

Ryan Bader will face Vadim Nemkov in the Bellator 244 main event.

Free Bellator 244 Prelims 720p Full Show Online

Bellator 244 “Prelims” Card (6:15 p.m. ET):

 

170 lbs.: Yaroslav Amosov (23-0) vs. Mark Lemminger (11-1)

155 lbs.: Adam Piccolotti (12-3) vs. Sidney Outlaw (14-4)

135 lbs.: Erik Perez (19-7) vs. Joshua Hill (19-3)

145 lbs.: Lucas Brennan (2-0) vs. Will Smith (3-1)

155 lbs.: Vladimir Tokov (7-0) vs. Chris Gonzalez (4-0)

145 lbs.: Weber Almeida (3-0) vs. Salim Mukhidinov (7-4)

150 lbs.: Vladyslav Parubchenko (16-1) vs. John de Jesus (12-8)

 

Prediction

Make no mistake, Bader is in for a fight in this one considering Nemkov’s size, demeanor and punishing striking style.

And while Bader’s wrestling has the potential to play a key role in the outcome,

particularly if he can shoot early to slow the pace down, Nemkov’s history of filthy leg kicks can’t be avoided. 

Bader is very much a different fighter thanks to his evolved striking,

and how much that offsets his already strong grappling game.

But if Nemkov can find success from the outside by targeting the champion’s legs ,

and forcing him into more of a standing duel,

 

 

Free Bellator 244 Prelims 720p Full Show Online

 

 

[/su_expand]

 

 

 

Watch online

 

 

[su_expand more_text=”Open Videos Online” less_text=”Close Videos” height=”0″ text_color=”#0859fe” link_color=”#a74a69″ link_style=”button” more_icon=”icon: play” less_icon=”icon: stop”]

 

 

Server 1

 

 

 

 

watch now

 

 

 

Server-2

 

 

 

watch now

[/su_expand]
 

Uploaded By Site DX-TV.com

 

 

 

Download Links with High Speed   

 

 

[su_expand more_text=”Open Download Links” less_text=”Close all Links” height=”0″ text_color=”#4b9a3e” link_color=”#1b3fa8″ link_style=”button” more_icon=”icon: link” less_icon=”icon: unlink”]

Keep2Share

 

 

 

nitroflare.com

 

 

 

rapidgator.net

 

 

 

uploadgig.com

 

 

[/su_expand]
dx-tv.com

 

urlfree.net

Leave a Reply

Your email address will not be published. Required fields are marked *

This site uses Akismet to reduce spam. Learn how your comment data is processed.