Free AEW Dynamite 22 07 2020 Full Show

Watch AEW Dynamite 22 07 2020 HDTV NWCHD DX-TV

 

Free AEW
 Free AEW

 

Free AEW Dynamite 22 07 2020 Full Show

 

 

 

Complete name : AEW.Dynamite.2020.07.22.HDTV.x264-NWCHD – BY DX-TV.COM.mp4
Format : MPEG-4
Format profile : Base Media
Codec ID : isom Free AEW
File size : 1.15 GiB
Duration : 1 h 42 min
Overall bit rate : 1 600 kb/s
Writing application : Lavf5 

Free AEW Dynamite 22 07 2020 Full Show

Video
ID : 1 Free AEW
Format : AVC
Codec ID : avc1
Duration : 1 h 42 min
Bit rate : 1 400 kb/s
Width : 704 pixels
Height : 400 pixels
Display aspect ratio : 16:9
Frame rate mode : Variable
Frame rate : 29.970 (30000/1001) FPS
Minimum frame rate : 29.155 FPS
Maximum frame rate : 29.970 FPS
Color space : YUV
Chroma sub sampling : 4:2:0
Bit depth : 8 bits Free AEW
Scan type : Progressive
Bits/(Pixel*Frame) : 0.166
Stream size : 1.01 GiB (87%)

Color primaries : BT.709
Transfer : BT.709
Matrix : BT.709
Codec box : avcC

 AEW Dynamite 22 07 2020 Full Show

Audio
ID : 2
Format : AAC LC
Format/Info : Advanced
Codec ID : mp4a-40-2
Duration : 1 h 42 min
Bit rate mode : Constant
Bit rate : 192 kb/s
Channel(s) : 2 channels
Channel layout : L R Free AEW
Sampling rate : 48.0 kHz
Frame rate : 46.875 FPS (1024 SPF)
Compression mode : Lossy
Stream size : 141 MiB (12%)
Title : Stereo
Default : Yes
Alternate group : 1

Online AEW Dynamite 

Maybe it was the watchful eyes of Tully Blanchard sitting in the stands, maybe Kiss was more of a challenge than the champion expected,

maybe there is something deeper going on inside Cody that’s nagging at him

take Cody’s past allusions to his own standing within The Elite as an example of a possible lingering issue. Whatever the case may be,

the frustration Cody felt one week ago was right out on front street for the world to see,

and one has to wonder if that will bleed into this week’s TNT Championship Open Challenge.

AEW Dynamite 22 07 2020

a fighter who stepped up to challenge Cody like Jake Hager or a man who earned it like Jungle Boy,

every individual Cody has faced has proven deserving of their opportunity, and pushed the champion to his limits (if not beyond) each time.

Cody has to anticipate that will be the case once again this week, but just like the rest of us,

he will have to wait until Wednesday night to find out who will receive the next opportunity to take the TNT Championship title from his grasp…

 

Free AEW Dynamite 22 07 2020 Full Show

 

 

 

Watch online

 

 

Server 1

 

 

 

 

watch now

 

 

 

 

Server 2

 

 

 

Free AEW

 

 

 

Server-3

 

 

 

watch now

 

 

 

Uploaded By Site DX-TV.com

 

 

 

Download with premium account Links 

 

 

Keep2Share

 

 

nitroflare.com

 

 

rapidgator.net

 

 

uploadgig.com

 

 

 

dx-tv.com

 

urlfree.net

Leave a Reply

Your email address will not be published. Required fields are marked *

This site uses Akismet to reduce spam. Learn how your comment data is processed.