Free AEW Dynamite 2020 08 22 720p Online

Watch Free AEW Dynamite 2020 08 22 720p Online DX-TV

 

Free AEW Dynamite 2020 08 22

 

Free AEW Dynamite 2020 08 22

Free AEW Dynamite 2020 08 22 720p Online

 

 

 

[su_expand more_text=”Show More Info” less_text=”Close all Info” height=”30″ text_color=”#000000″ link_color=”#e25f8b” link_style=”button” more_icon=”icon: arrow-down” less_icon=”icon: arrow-up”]

Complete name : AEW.Dynamite.2020.08.22.720p.WEB.h264-HEEL.mp4
Format : MPEG-4
Format profile : Base Media
Codec ID : isom
File size : 1.73 GiB
Duration : 2 h 0 min
Overall bit rate mode : Variable
Overall bit rate : 2 060 kb/s
Writing application : Lavf58.32.104

Free  Dynamite 2020 08 22 720p Online

Video
ID : 1
Format : AVC
Format/Info : Advanced
settings, : 4 frames
Codec ID : avc1  AEW Dynamite 2020 08 22
Codec ID/Info : Advanced
Duration : 1 h 59 min
Bit rate : 1 955 kb/s
Nominal bit rate : 2 300 kb/s
Width : 1 280 pixels
Height : 720 pixels
Display aspect ratio : 16:9
Frame rate mode : Constant
Frame rate : 29.970 FPS
Color space : YUV
Chroma sub-sampling : 4:2:0
Bit depth : 8 bits
Scan type : Progressive
Bits/(Pixel*Frame) : 0.071
Stream size : 1.64 GiB (95%)
Writing library : x264 core 152

Free AEW Dynamite 2020 08 22 720p Online

Audio
ID : 2
Format : AAC LC
Format/Info : Advanced
Codec ID : mp4a-40-2
Duration : 2 h 0 min
Bit rate mode : Variable
Bit rate : 96.0 kb/s  AEW Dynamite 2020 08 22
Maximum bit rate : 99.8 kb/s
Channel(s) : 2 channels
Channel layout : L R
Sampling rate : 48.0 kHz
Frame rate : 46.875 FPS (1024 SPF)
Compression mode : Lossy
Stream size : 82.8 MiB (5%)
Default : Yes
Alternate group : 1

Free AEW Dynamite 2020 08 22 720p Online

And that brings us to this Saturday night, when The Young Bucks unite once more with Kenny Omega,

to take on three members of The Dark Order in trios competition.

Reynolds, Silver, and the man now called Five certainly have a lot to prove to,

Mr. Brodie Lee with multiple disappointments under his watchful eye,

and putting down this trio may go a long way to forgiving those sins.

It is an uphill battle for the DO group,   AEW Dynamite 2020 08 22

but the lone victory on Reynolds and Silver’s AEW resume prior to this weeks ,

AEW DARK came from this exact unit, so they do have that going for them.

 

Free AEW Dynamite 2020 08 22 720p Online

The Bucks and Omega are 2-0 on the year in trios action, 4-1 since the inception of AEW,

not to mention all their history together around the world, so the odds are distinctly in their favor.

Still, the words of Brodie about putting respect on The Dark Order name also echo here,

and a victory for The Dark Order trio would offer that in spades.

Have to ask though, what’s Page think about his championship partner leaving,

him out in the cold once again in a trios match?   AEW Dynamite 2020 08 22

TAG TEAM COMPETITION…

(#1) FTR (Cash Wheeler & Dax Harwood) vs. Private Party (Marq Quen & Isiah Kassidy)

Free AEW Dynamite 2020 08 22  

For several weeks, it appeared that Dax Harwood was struggling with a knee injury that forced ,

him out of that 12-Man Tag against The Dark Order mid-match. It even seemed to give out on him as he and Cash,

along with The Young Bucks, attempted to quell the tensions between The Rock ‘n Roll Express and Tully Blanchard.

Well, as can be seen in that video above, it was all a ruse,

and FTR had no qualms about using it to lay out Ricky Morton and Robert Gibson,

presumably as a message to Matt and Nick Jackson.  AEW Dynamite 2020 08 22  

If not a message to The Young Bucks, at the very least it’s one to the entire tag team division that Cash

and Dax will do whatever it takes to prove themselves the best pair in wrestling.

 

 

Free AEW Dynamite 2020 08 22 720p Online

 

 

[/su_expand]

 

 

 

Watch online

 

 

[su_expand more_text=”Open Videos Online” less_text=”Close Videos” height=”0″ text_color=”#0859fe” link_color=”#a74a69″ link_style=”button” more_icon=”icon: play” less_icon=”icon: stop”]

 

 

Server 1

 

 

 

 

watch now

 

 

 

Server-2

 

 

 

watch now

[/su_expand]
 

Uploaded By Site DX-TV.com

 

 

 

Download Links with High Speed   

Free AEW Dynamite 2020 08 22 720p Online

 

[su_expand more_text=”Open Download Links” less_text=”Close all Links” height=”0″ text_color=”#4b9a3e” link_color=”#1b3fa8″ link_style=”button” more_icon=”icon: link” less_icon=”icon: unlink”]

AEW

 

 

Keep2Share

 

 

 

nitroflare.com

 

 

 

rapidgator.net

 

 

 

uploadgig.com

 

 

[/su_expand]
dx-tv.com

 

urlfree.net

Leave a Reply

Your email address will not be published. Required fields are marked *

This site uses Akismet to reduce spam. Learn how your comment data is processed.