Free 1080p WWE NXT UK 07 30 2020 Full Show

Watch Free 1080p WWE NXT UK 07 30 2020 Full Show DX-TV

 

Free 1080p WWE NXT

 

 Free 1080p WWE NXT

Free 1080p WWE NXT UK 07 30 2020 Full Show

 

 

 

Complete name : WWE.NXT.UK.2020.07.30.1080p.WEB.h264-HEEL.mp4
Format : MPEG-4
Format profile : Base Media
Codec ID : isom
File size : 2.48 GiB 
Duration : 44 min 51 s
Overall bit mode : Variable
Overall bit rate : 7 904 kb/s
Writing application : Lavf58

 1080p WWE NXT UK 07 30 2020 Full Show

Video
ID : 1
Format : AVC
Duration : 44 min 51 s
Bit rate : 7 808 kb/s
Width : 1 920 pixels
Height : 1 080 pixels
Display aspect ratio : 16:9
Frame rate : Constant
Frame rate : 30.000 FPS
Color space : YUV
Chroma sub sampling : 4:2:0
Bit depth : 8 bits
Scan type : Progressive
Bits/(Pixel*Frame) : 0.126
Stream size : 2.41 GiB (97%)

Free  WWE NXT UK 07 30 2020 Full Show

Audio
ID : 2
Format : AAC LC
Format/Info : Advanced 
Codec ID : mp4a-40-2
Duration : 44 min 51 s
Bit rate mode : Variable
Bit rate : 192 kb/s
Maximum bit rate : 423 kb/s
Channel(s) : 2 channels
Channel layout : L R
Sampling rate : 48.0 kHz
Frame rate : 46.875 FPS
Compression mode : Lossy
Stream size : 61.8 MiB (2%)
Default : Yes
Alternate group : 1

WWE NXT UK 07 30 2020 Full Show

 

1080p WWE NXT UK 07 30 2020 Full Show

 

 

 

Watch online

 

 

Server 1

 

 

 

 

watch now

 

 

 

 

Server 2

 

 

 

watch now

 

 

 

Server-3

 

 

 

watch now

 

 

 

Uploaded By Site DX-TV.com

 

 

 

Download with premium account Links 

 

 

Keep2Share

 

 

nitroflare.com

 

 

rapidgator.net

 

 

uploadgig.com

 

 

 

dx-tv.com

 

urlfree.net

 59 total views,  7 views today

Leave a Reply

Your email address will not be published. Required fields are marked *

This site uses Akismet to reduce spam. Learn how your comment data is processed.

%d bloggers like this: