Final NJPW World Tag League 2020 12 11 Eng /Japan DX-TV

Final NJPW World Tag League 2020 12 11 Eng /Japan DX-TV

Final NJPW World Tag League 2020

 

 Final NJPW World Tag League 2020

 

[su_expand more_text=”Show More Info” less_text=”Close all Info” height=”50″ text_color=”#000000″ link_color=”#e25f8b” link_style=”button” more_icon=”icon: arrow-down” less_icon=”icon: arrow-up”]

Complete name : NJPW.2020.12.11.World.Tag.League.2020.Best.Of.The.Super.Jr.27.Final.JAPANESE.WEB.h264-LATE.mkv
Format : Matroska
Format version : Version 4
File size : 2.49 GiB
Duration : 3 h 4 min
Overall bit rate : 1 935 kb/s

Final NJPW World  

Video
ID : 1
Format : AVC
Duration : 3 h 4 min
Bit rate : 1 833 kb/s
Width : 960 pixels
Height : 540 pixels
Display aspect ratio : 16:9
Frame rate mode : Constant
Frame rate : 30.000 FPS
Color space : YUV
Chroma subsampling : 4:2:0
Bit depth : 8 bits
Scan type : Progressive
Bits/(Pixel*Frame) : 0.118
Stream size : 2.36 GiB (95%)
Default : Yes
Forced : No
Color range : Limited
Color primaries : BT.601 PAL
Transfer characteristics : BT.601
Matrix coefficients : BT.470

Final NJPW World Tag League 2020

Audio
ID : 2
Format : AAC LC
Format/Info : Advanced Audio
Codec ID : A_AAC-2
Duration : 3 h 4 min
Bit rate : 99.3 kb/s
Channel(s) : 2 channels
Channel layout : L R
Sampling rate : 44.1 kHz
Frame rate : 43.066 FPS
Compression mode : Lossy
Stream size : 131 MiB (5%)
Language : English
Default : Yes
Forced : No

Final NJPW World 

Desperado looked to punch Hiromu in the face, but was met with a right hand from the Time Bomb instead. Tearing into Desperado,

Hiromu tore at his opponent’s mask, only for Desperado to voluntarily demask, showing a man Hiromu knew from Dojo days long past.

The demasked Desperado almost had Hiromu beaten with El Es Clero,

but a running Death Valley into an exposed steel turnbuckle was followed by Time Bombs I and II, and Hiromu lifted the Best of the Super Jr. trophy.

Final NJPW World Tag League 2020

Hiromu battled back, but his knee gave out when trying to land his biggest maneuvers,

including a sunset flip bomb to the floor, which resulted in him crashing to the floor as Desperado hung on to the bottom rope.

It was when the referee was downed in the corner though that both men tapped into years of complex hatred for one another. 

 

[/su_expand]

 

 

Watch online

 

Server 1

 

English

 

 

Final NJPW World Tag League 2020

 

Japan

 

Final NJPW World Tag League 2020

 

 

 

 

Server-2

 

English

 

 

Final NJPW World Tag League 2020

 

Japan

 

watch now

 

 

Uploaded By Site DX-TV.com

 

Final NJPW  

 

Download Links with premium High Speed   

 

dropapk.to

http://shrt10.com/7PMc5
http://shrt10.com/6l2ijK3S

 

 

nitroflare.com

http://shrt10.com/nH0YXgyK1
http://shrt10.com/kGhPVf

 

 

rapidgator.net

http://shrt10.com/pimpj
http://shrt10.com/sAAzYbIk

 

 

uploaded.net

http://shrt10.com/FvBXV
http://shrt10.com/hLEgfWexg

 

 

uploadgig.com

http://shrt10.com/qAC6tlLSL
http://shrt10.com/asLUWNK

 

https://dx-tv.com/watch-bellator-254-main-card-1080p-free-online-dx-tv/

You May Also Like

Leave a Reply

Your email address will not be published. Required fields are marked *

This site uses Akismet to reduce spam. Learn how your comment data is processed.