EVOLVE 146 2020 1080p WEB DX-TV

Watch EVOLVE 146 2020 03 01 1080p WEB DX-TV

EVOLVE

 

 EVOLVE 146

 

 

EVOLVE 146 2020 1080p WEB DX-TV

 

Complete name : EVOLVE 146 2020 1080p WEB DX-TV.mp4
Format : MPEG-4
Format profile : EVOLVE
Codec ID : isom 
File size : 4.36 GiB
Duration : 2 h 22 min
Overall bit rate : 4 377 kb/s

Video
ID : 1
Format : AVC
Duration : 2 h 22 min
Bit rate : 4 239 kb/s
Width : 1 920 pixels
Height : 1 080 pixels
Display aspect ratio : 16:9
Frame rate mode : EVOLVE
Frame rate : 29.970 (30000/1001) FPS
Color space : YUV
Chroma subsampling : 4:2:0
Bit depth : 8 bits
Scan type : Progressive
Bits/(Pixel*Frame) : 0.068
Stream size : 4.22 GiB (97%)
Color range : Limited
Color primaries : BT.709
Transfer characteristics : BT.709
Matrix coefficients : BT.709
Codec configuration box : EVOLVE

Audio
ID : 2
Format : AAC LC
Format/Info : Advanced
Codec ID : mp4a-40-2
Duration : 2 h 22 min
Bit rate mode : EVOLVE
Bit rate : 128 kb/s
Channel(s) : 2 channels
Channel layout : L R
Sampling rate : 44.1 kHz
Frame rate : 43.066 FPS (1024 SPF)
Compression mode : Lossy
Stream size : 130 MiB (3%)
Language : English
Default : EVOLVE
Alternate group : 1

 

 

 

Watch online

 

 

Server 1

 

watch now

 

Server 2

 

watch now

 

 

 

EVOLVE 146 2020 1080p WEB DX-TV

 

 

Uploaded By Site DX-TV.com

 

 

Download with Free Links 

 

 

1fichier.com

https://shrt10.com/JPcbBVOw
https://shrt10.com/WQtL9
https://shrt10.com/B5xSyGim

 

DDL.to

https://shrt10.com/Ha0V4p3T
https://shrt10.com/5qx6ek
https://shrt10.com/vqi6RT14

 

rockfile.co

https://shrt10.com/cFPdHGvMu
https://shrt10.com/ZaqSWLy
https://shrt10.com/teY6PK

 

 

Download with premium account Links 

 

 

Keep2Share

 

 

mixdrop.co

 

 

alfafile.net

 

 

nitroflare.com

 

 

rapidgator.net

 

 

uploadgig.com

 

 

 

dx-tv.com

 

You May Also Like