EVOLVE 146 01 03 20 WEB DX-TV

Watch EVOLVE 146 01 03 20 WEB DX-TV

 

EVOLVE

 EVOLVE 146

 

 

EVOLVE 146 01 03 20 WEB DX-TV

 

 

Updated Below Links download  1080p and

 

watching online with date 27-06-2020

 

 

 

Complete name : EVOLVE 146 01.03.20 WEB x264 DX-TV.com.mp4
Format : MPEG-4
Format profile : EVOLVE
Codec ID : mp42 (mp42)
File size : 2.11 GiB
Duration : 2 h 22 min
Overall bit rate : 2 121 kb/s

EVOLVE 146 01 03 20 WEB DX-TV

Video
ID : 1
Format : AVC
Duration : 2 h 22 min
Bit rate : 1 999 kb/s
Width : 960 pixels
Height : 540 pixels
Display aspect ratio : 16:9
Frame rate mode : EVOLVE
Frame rate : 30.000 FPS
Color space : YUV
Chroma subsampling : 4:2:0
Bit depth : 8 bits
Scan type : Progressive
Bits/(Pixel*Frame) : 0.129
Stream size : 1.99 GiB (94%)
Language : English
Codec configuration box : avcC

EVOLVE 146 01 03 20 WEB DX-TV

Audio
ID : 2
Format : AAC LC
Format/Info : EVOLVE
Codec ID : mp4a-40-2
Duration : 2 h 22 min
Bit rate mode : EVOLVE
Bit rate : 115 kb/s
Channel(s) : 2 channels
Channel layout : L R
Sampling rate : 44.1 kHz
Frame rate : 43.066 FPS (1024 SPF)
Compression mode : Lossy
Stream size : 117 MiB (5%)
Title : Stereo
Language : English
Default : EVOLVE
Alternate group : 1

 

146 01 03 20 WEB DX-TV

 

Watch online

 

 

Server 1

 

 

watch now

 

 

 

 

Server 2

 

 

 

watch now

 

 

 

EVOLVE 146 01 03 20 WEB DX-TV

 

 

Uploaded By Site DX-TV.com

 

 

Download with Free Links 

 

 

1fichier.com

https://shrt10.com/719Vas
https://shrt10.com/tFxAMyunq

 

DDL.to

https://shrt10.com/xSfPdhfFe
https://shrt10.com/eWKoZwb

 

rockfile.co

https://shrt10.com/AiefqNquK
https://shrt10.com/e8egGV5V

 

 

Download with premium account Links 

 

 

Keep2Share

 

 

mixdrop.co

 

 

alfafile.net

 

 

nitroflare.com

 

 

rapidgator.net

 

 

uploadgig.com

 

 

Updated Below Links 1080p with date 27-06-2020

 

 

nitroflare.com

 

 

rapidgator.net

 

 

uploadgig.com

 

 

 

 

dx-tv.com

 

You May Also Like