EVOLVE 144 Free Online 18 01 2020 1080p

Watch EVOLVE 144 Free Online 18 01 2020 1080p DX-TV

 

EVOLVE 144

 EVOLVE 14

EVOLVE 144 Free Online 18 01 2020 1080p

 

 

Complete name : 2020.01.18 EVOLVE 144.mp4
Format : MPEG-4
Format profile : Base Media
Codec ID : isom (isom/iso2/avc1/mp41)
File size : 5.00 GiB
Duration : 3 h 19 min
Overall bit rate : 3 586 kb/s
Writing EVOLVE 144 : Lavf58.29.100

EVOLVE 144 Free Online 18 01 2020 1080p

Video
ID : 1
Format : AVC
Format/Info : Advanced Video Codec
sFormat profile : [email protected]
settings : CABAC / 4 Ref Frames
Format settings, CABAC : Yes
EVOLVE 144 Reference : 4 frames
Codec ID : avc1
Codec ID/Info : Advanced Video Coding
Duration : 3 h 19 min
Bit rate : 3 460 kb/s
Width : 1 920 pixels
Height : 1 080 pixels
Display aspect ratio : 16:9
Frame rate mode : Variable
Frame rate : 29.970 FPS
Minimum frame rate : 28.275 FPS
Maximum frame rate : 31.881 FPS
Color space : YUV
Chroma EVOLVE 144: 4:2:0
Bit depth : 8 bits
Scan type : Progressive
Bits/(Pixel*Frame) : 0.056
Stream size : 4.82 GiB (97%)
Writing library : x264 core 136

EVOLVE 144 Free Online 18 01 2020 1080p

Audio
ID : 2
Format : AAC LC
Format/Info : EVOLVE 144 Complexity
Codec ID : mp4a-40-2
Duration : 3 h 19 min
Bit rate mode : Constant
Bit rate : 115 kb/s
Channel(s) : 2 channels
Channel layout : L R
Sampling rate : 44.1 kHz
Frame rate : 43.066 FPS (1024 SPF)
EVOLVE 144 mode : Lossy
Stream size : 163 MiB (3%)
Default : Yes
Alternate group : 1

 

 

EVOLVE 144 Free Online 18 01 2020 1080p

 

EVOLVE 144 Wrestling presents
Saturday, January 18th, 2020
Belltime – 7:00 PM EST
Orlando Live Events (OLE)
6405 S US Hwy 17 92
Fern Park, FL 32730

EVOLVE Championship Match
Josh Briggs defends vs. Dexter Lumis

Dream Match
Mansoor vs. AR Fox with Ayla & The Skulk

Only In EVOLVE
Jaoquin Wilde vs. Leon Ruff

Non-Title Match
EVOLVE Tag Team Champions BESTies In The World of Davey Vega & Mat Fitchett vs. Liam Gray & Adrian Alanis

No Holds Barred Match
Eddie Kingston vs. Anthony Gutierrez

Grudge Match
Brandi Lauren vs. Avery Taylor EVOLVE 144

Only In EVOLVE
Anthony Greene with Brandi Lauren vs. Rik Bugez

Only In EVOLVE
Joe Gacy vs. Denzel Dejournette

Only In EVOLVE
Stephen Wolf vs. Brendan Vink

Plus more with Curt Stallion and others!!!

EVOLVE stars will be available for pictures and autographs before the event!

SHINE Wrestling Mini-Card At 7pm EVOLVE 144

SHINE Tag Team Championship Match
Triple Aye of Aja Perera & Big Swole with Ayla defend vs. BTY of Marti Belle & Jayme Jameson

SHINE Nova Championship Match
Natalia Markova defends vs. Jenna

Plus More To Be Announced! EVOLVE 144

 

 

Watch online

 

 

Server 1

 

 

 

 

watch now

 

 

 

 

Server 2

 

 

 

watch now

 

 

 

Server-3

 

 

 

watch now

 

 

 

Uploaded By Site DX-TV.com

 

 

 

Download with premium account Links 

 

 

Keep2Share

 

 

nitroflare.com

 

 

rapidgator.net

 

 

uploadgig.com

 

 

 

dx-tv.com

 

urlfree.net