EVOLVE 143 Free Online 17 01 2020 1080p

Watch EVOLVE 143 Free Online 17 01 2020 1080p DX-TV

 

EVOLVE

 EVOLVE 143

EVOLVE 143 Free Online 17 01 2020 1080p

 

 

 

Complete name : 2020.01.17 EVOLVE 143.mp4
Format : MPEG-4
Format profile : Base Media
Codec ID : isom
File size : 4.74 GiB
Duration : 3 h 9 min
Overall bit rate : 3 586 kb/s
Writing EVOLVE : Lavf58.29.100

EVOLVE 143 Free Online 17 01 2020 1080p

Video
ID : 1
Format : AVC
Format/Info : Advanced Video Codec
wFormat profile : [email protected]
EVOLVE settings : CABAC / 4 Ref Frames
aFormat settings, CABAC : Yes
Format settings, : 4 frames
Codec ID : avc1
Codec ID/Info : EVOLVE Video Coding
Duration : 3 h 9 min
Bit rate : 3 460 kb/s
Width : 1 920 pixels
Height : 1 080 pixels
Display aspect ratio : 16:9
Frame rate mode : Variable
Frame rate : 29.970 (29970/1000) FPS
EVOLVE frame rate : 28.275 FPS
Maximum frame rate : 31.892 FPS
Color space : YUV
Chroma subsampling : 4:2:0
Bit depth : 8 bits
Scan type : Progressive
Bits/(Pixel*Frame) : 0.056
Stream size : 4.57 GiB (97%)
Writing library : x264 core 136

 143 Free Online 17 01 2020 1080p

Audio
ID : 2
Format : AAC LC
Format/Info : EVOLVE Complexity
Codec ID : mp4a-40-2
Duration : 3 h 9 min
Bit rate mode : Constant
Bit rate : 115 kb/s
Channel(s) : 2 channels
Channel layout : L R
Sampling rate : 44.1 kHz
Frame rate : 43.066 FPS (1024 SPF)
EVOLVE mode : Lossy
Stream size : 155 MiB (3%)
Default : Yes
Alternate group : 1

 

143 Free Online 17 01 2020 1080p

 

EVOLVE Wrestling presents
EVOLVE 143
Friday, January 17th, 2020
Belltime – 7:00 PM EST
The Orpheum
1915 E. 7th Avenue
Ybor City, FL 33605

EVOLVE 143 Free Online 17 01 2020 1080p

Non-Title No DQ Match
EVOLVE Champion Josh Briggs vs. Anthony Greene with Brandi Lauren

EVOLVE Tag Team Championship Match
BESTies Of The World of Davey Vega & Mat Fitchett defend vs. Eddie Kingston & Joe Gacy of The Unwanted

Only In EVOLVE
AR Fox with Ayla & The Skulk vs. Brendan Vink

Only In EVOLVE
Curt Stallion vs. Dexter Lumis

Only In EVOLVE
Brandi Lauren vs. Indi Hartwell

Only In EVOLVE
Santana Garrett vs. Avery Taylor

Only In EVOLVE
Adrian Alanis vs. Denzel Dejournette

Fatal Four Way
Stephen Wolf vs. Anthony Gutierrez vs. Leon Ruff vs. Liam Gray

Plus more with Rik Bugez and others!!!

EVOLVE stars will be available for pictures and autographs before and after the event!

Full Impact Pro Wrestling Mini-Card At 7pm

FIP Florida Heritage Championship Match
Jon Davis defends vs. Troy Hollywood of OAO

Tag Team Special Challenge Match
Precipice of Chance Auren & Omar Amir with Skinny Vinny vs. OAO of Hunter Law & Snoop Strikes

FIP In Full Force 2019 Rematch
The End of Parrow & Odinson vs. The Dirty Blondes of Michael Patrick & Leo Brien with
“Superstar” Sean Davis

 

EVOLVE 143 Free Online 17 01 2020 1080p

 

Watch online

 

 

Server 1

 

 

 

 

watch now

 

 

 

 

Server 2

 

 

 

watch now

 

 

 

Server-3

 

 

 

EVOLVE

 

 

 

Uploaded By Site DX-TV.com

 

 

 

Download with premium account Links 

 

 

Keep2Share

 

 

nitroflare.com

 

 

rapidgator.net

 

 

uploadgig.com

 

 

 

dx-tv.com

 

urlfree.net

You May Also Like