Dream Tag Team Invitational 2018 Night 1 / 2 / 3 540p Watch / Download

Dream Tag Team Invitational 2018 Night 1 / 2 / 3 540p Watch / Download

 

 

 

 


 

 

dx-tv.com

 

 

 

 

Complete name : Dream Tag Team Invitational Night 1 (540p).mp4
Format : MPEG-4
Format profile : Base Media / Version 2
Codec ID : mp42
File size : 1.81 GiB
Duration : 2h 29mn
Overall bit rate : 1 740 Kbps
Encoded date : UTC 2018-04-04 20:34:19
Tagged date : UTC 2018-04-04 20:34:19

Video
ID : 1
Format : AVC
Format/Info : Advanced Video Codec
Codec ID : avc1
Codec ID/Info : Advanced Video Coding
Duration : 2h 29mn
Bit rate mode : Variable
Bit rate : 1 479 Kbps
Width : 960 pixels
Height : 540 pixels
Display aspect ratio : 16:9
Frame rate mode : Constant
Frame rate : 25.000 fps
Color space : YUV
Chroma subsampling : 4:2:0
Bit depth : 8 bits
Scan type : Progressive
Bits/(Pixel*Frame) : 0.114
Stream size : 1.54 GiB (85%)

Audio
ID : 2
Format : AAC
Format/Info : Advanced Audio Codec
Format profile : LC
Codec ID : 40
Duration : 2h 29mn
Bit rate mode : Variable
Bit rate : 256 Kbps
Channel(s) : 2 channels
Channel positions : Front: L R
Sampling rate : 48.0 KHz
Compression mode : Lossy
Stream size : 273 MiB (15%)
Encoded date : UTC 2018-04-04 20:34:19
Tagged date : UTC 2018-04-04 20:34:19

 

 

 

 

 
March 31st 2018

Pete Dunne vs. Rey Fenix vs. Sami Callihan

Tag Team Match (Non Tournament)
Callous Hearts (Clint Margera & Jimmy Havoc) vs. The Briscoe Brothers (Jay & Mark)

Dream Tag Team Invitational 2018 First Round Falls Count Anywhere Match
Moustache Mountain (Trent Seven & Tyler Bate) vs.
The Gentleman’s Club (Chuck Taylor & Orange Cassidy)

Aussie Open (Kyle Fletcher & Mark Davis) & Travis Banks vs.
Meiko Satomura & The Rascalz (Dezmond Xavier & Zachary Wentz)

DASH Chisako vs. Kay Lee Ray vs. Kris Wolf vs. Millie McKenzie

Dream Tag Team Invitational 2018 First Round Match
Calamari Catch Kings (Chris Brookes & Jonathan Gresham) (w/Kid Lykos) vs.
The Chosen Bros (Jeff Cobb & Matt Riddle)
 

 

 

 

 

Dream Tag Team Invitational 2018 Night 1 / 2 / 3 540p Watch / Download

 

 

 

 

Watch online

 

 

Waiting finish converting video

 

 

Server 1

 

 

 

 

 

 

 

 

 

 

 

 

 

 

 

 

 

 

 

 

 

 

 

 

Server 2

 

 

 

 


 

 


 

 


 

 

 

 

 

Uploaded By Site DX-TV.com

 

 

 

open rar file to see this password

 

 

 

 

The password is : DX-TV.com

 

 

 

 

 

Uploaded.net + rapidgator.net

 

 

 

 

 
http://shrt10.com/PkdQO

 
http://shrt10.com/m2PqXTe

 
http://shrt10.com/utNmIOxv

 
http://shrt10.com/pWSWZqbI

 
http://shrt10.com/DTKD4

 

 

http://shrt10.com/kJJTC

 

 

 

 

 

 

 

Dream Tag Team Invitational 2018 Night 1 / 2 / 3 540p Watch / Download