Dragon Gate The Gate of Passion Day 9 Afternoon Show

Dragon Gate The Gate of Passion Day 9 2021 04 18 Afternoon Show DX-TV

Dragon Gate The Gate of Passion

 Dragon Gate The Gate of Passion

 

 

 

Download Links with High Speed


Dopapk

 

 

Show Links

 

http://shrt10.com/VLkTsG

 

[collapse]

 

 

Nitroflare

 

 

Show Links

 

http://shrt10.com/4v7NS

 

[collapse]

 

 

Rapidgator

 

 

Show Links

 

http://shrt10.com/iDpbpbed

 

[collapse]

 

 

Uploaded

 

 

Show Links

 

http://shrt10.com/hTwnLf

 

[collapse]

 

 

Watch online

 

Server 1

 

 

 

 

watch now

 

 

 

 

Server-2

 

 

 

 

watch now

 

 

 

|Server-3

 

 

 

 

Dragon Gate The Gate of Passion

 

 

Uploaded By Site DX-TV.com

 

 

Show Info This Show

 

 

Complete name : 2021.04.18.Dragon.Gate.The.Gate.of.Passion.Day.9.Afternoon.Show.mp4
Format : MPEG-4
Format profile : Base Media
Codec ID : isom
File size : 3.41 GiB
Duration : 3 h 3 min
Overall bit rate mode : Variable
Overall bit rate : 2 655 kb/s

Dragon Gate The Gate of Passion

Video
ID : 1
Format : AVC
Duration : 3 h 3 min
Bit rate mode : Variable
Bit rate : 2 457 kb/s
Maximum bit rate : 2 703 kb/s
Width : 1 280 pixels
Height : 720 pixels
Display aspect ratio : 16:9
Frame rate mode : Variable
Frame rate : 29.970 (29970/1000) FPS
Minimum frame rate : 19.608 FPS
Maximum frame rate : 32.258 FPS
Original frame rate : 30.000 FPS
Standard : NTSC
Color space : YUV
Chroma subsampling : 4:2:0
Bit depth : 8 bits
Scan type : Progressive
Bits/(Pixel*Frame) : 0.089
Stream size : 3.15 GiB (93%)
Color range : Limited
Color primaries : BT.709
Transfer characteristics : BT.709
Matrix coefficients : BT.709
Codec configuration box : avcC

Audio
ID : 2
Format : AAC LC
Codec ID : mp4a-40-2
Duration : 3 h 3 min
Bit rate mode : Constant
Bit rate : 192 kb/s
Channel(s) : 2 channels
Channel layout : L R
Sampling rate : 48.0 kHz
Frame rate : 46.875 FPS (1024 SPF)
Compression mode : Lossy
Stream size : 249 MiB (7%)
Default : Yes
Alternate group : 1

The Gate of Passion

Audio
ID : 2
Format : AAC LC
Codec ID : mp4a-40-2
Duration : 3 h 3 min
Bit rate mode : Constant
Bit rate : 192 kb/s
Channel(s) : 2 channels
Channel layout : L R
Sampling rate : 48.0 kHz
Frame rate : 46.875 FPS (1024 SPF)
Compression mode : Lossy
Stream size : 249 MiB (7%)
Default : Yes
Alternate group : 1

 

Audio
ID : 2
Format : AAC LC
Codec ID : mp4a-40-2
Duration : 3 h 3 min
Bit rate mode : Constant
Bit rate : 192 kb/s
Channel(s) : 2 channels
Channel layout : L R
Sampling rate : 48.0 kHz
Frame rate : 46.875 FPS (1024 SPF)
Compression mode : Lossy
Stream size : 249 MiB (7%)
Default : Yes
Alternate group : 1

The Gate of Passion

Audio
ID : 2
Format : AAC LC
Codec ID : mp4a-40-2
Duration : 3 h 3 min
Bit rate mode : Constant
Bit rate : 192 kb/s
Channel(s) : 2 channels
Channel layout : L R
Sampling rate : 48.0 kHz
Frame rate : 46.875 FPS (1024 SPF)
Compression mode : Lossy
Stream size : 249 MiB (7%)
Default : Yes
Alternate group : 1

The Gate of Passion

 

[collapse]

 

 

https://dx-tv.com/