Dragon Gate The Gate of Adventure Day 6 2021 Free

Dragon Gate The Gate of Adventure Day 6 2021 08 15 Afternoon/ Evening Online Free Replay DX-TV

The Gate of Adventure

 The Gate of Adventure

 

 

 

Download Links with premium High Speed


 

Dopapk

 

 

Show Links

 

http://shrt10.com/lKr3SQCY
http://shrt10.com/i3p9fG

 

[collapse]

 

 

Nitroflare

 

 

Show Links

 

http://shrt10.com/SPikYf8M
http://shrt10.com/3aoVK

 

[collapse]

 

 

Rapidgator

 

 

Show Links

 

http://shrt10.com/QEeg0PISX
http://shrt10.com/ATjVhAaH8

 

[collapse]

 

 

Uploaded

 

 

Show Links

 

http://shrt10.com/limEr
http://shrt10.com/mUYbw

 

[collapse]

 

 

Watch online

 

Server 1

 

 

 

 

watch now

watch now

 

 

 

 

Server-2

 

 

 

 

watch now

watch now

 

 

 

|Server-3

 

 

 

 

watch now

watch now

 

 

Uploaded By Site DX-TV.com

 

 

Show Info This Show

The Gate of Adventure

 

General
Complete name : 2021.08.15.Dragon.Gate.The.Gate.of.Adventure.Day.6.Afternoon.mp4
Format : MPEG-4
Format profile : Base Media
Codec ID : isom
File size : 3.11 GiB
Duration : 2 h 47 min
Overall bit rate mode : Variable
Overall bit rate : 2 653 kb/s

Video
ID : 1
Format : AVC
Format/Info : Advanced Video
Duration : 2 h 47 min
Bit rate mode : Variable
Bit rate : 2 455 kb/s
Maximum bit rate : 2 703 kb/s
Width : 1 280 pixels
Height : 720 pixels
Display aspect ratio : 16:9
Frame rate mode : Variable
Frame rate : 29.970 (29970/1000) FPS
Minimum frame rate : 20.000 FPS
Maximum frame rate : 34.483 FPS
Original frame rate : 30.000 FPS
Standard : NTSC
Color space : YUV
Chroma subsampling : 4:2:0
Bit depth : 8 bits
Scan type : Progressive
Bits/(Pixel*Frame) : 0.089
Stream size : 2.88 GiB (93%)
Color range : Limited
Color primaries : BT.709
Transfer characteristics : BT.709
Matrix coefficients : BT.709
Codec configuration box : avc

The Gate of Adventure

Audio
ID : 2
Format : AAC LC
Format/Info : Advanced Audio
Codec ID : mp4a-40-2
Duration : 2 h 47 min
Bit rate mode : Constant
Bit rate : 192 kb/s
Channel(s) : 2 channels
Channel layout : L R
Sampling rate : 48.0 kHz
Frame rate : 46.875 FPS (1024 SPF)
Compression mode : Lossy
Stream size : 227 MiB (7%)
Default : Yes
Alternate group : 1

General
Complete name : 2021.08.15.Dragon.Gate.The.Gate.of.Adventure.Day.6.Evening.mp4
Format : MPEG-4
Format profile : Base Media
Codec ID : isom
File size : 3.24 GiB
Duration : 2 h 54 min
Overall bit rate mode : Variable
Overall bit rate : 2 653 kb/s

The Gate of Adventure

Video
ID : 1
Format : AVC
Format/Info : Advanced Video
Duration : 2 h 54 min
Bit rate mode : Variable
Bit rate : 2 455 kb/s
Maximum bit rate : 2 703 kb/s
Width : 1 280 pixels
Height : 720 pixels
Display aspect ratio : 16:9
Frame rate mode : Variable
Frame rate : 29.970 (29970/1000) FPS
Minimum frame rate : 19.608 FPS
Maximum frame rate : 33.333 FPS
Original frame rate : 30.000 FPS
Standard : NTSC
Color space : YUV
Chroma subsampling : 4:2:0
Bit depth : 8 bits
Scan type : Progressive
Bits/(Pixel*Frame) : 0.089
Stream size : 3.00 GiB (93%)
Color range : Limited
Color primaries : BT.709
Transfer characteristics : BT.709
Matrix coefficients : BT.709
Codec configuration box : avcC

The Gate of Adventure

Audio
ID : 2
Format : AAC LC
Format/Info : Advanced Audio
Codec ID : mp4a-40-2
Duration : 2 h 54 min
Bit rate mode : Constant
Bit rate : 192 kb/s
Channel(s) : 2 channels
Channel layout : L R
Sampling rate : 48.0 kHz
Frame rate : 46.875 FPS (1024 SPF)
Compression mode : Lossy
Stream size : 237 MiB (7%)
Default : Yes
Alternate group : 1

The Gate of Adventure

General
Complete name : 2021.08.15.Dragon.Gate.The.Gate.of.Adventure.Day.6.Afternoon.mp4
Format : MPEG-4
Format profile : Base Media
Codec ID : isom
File size : 3.11 GiB
Duration : 2 h 47 min
Overall bit rate mode : Variable
Overall bit rate : 2 653 kb/s

Video
ID : 1
Format : AVC
Format/Info : Advanced Video
Duration : 2 h 47 min
Bit rate mode : Variable
Bit rate : 2 455 kb/s
Maximum bit rate : 2 703 kb/s
Width : 1 280 pixels
Height : 720 pixels
Display aspect ratio : 16:9
Frame rate mode : Variable
Frame rate : 29.970 (29970/1000) FPS
Minimum frame rate : 20.000 FPS
Maximum frame rate : 34.483 FPS
Original frame rate : 30.000 FPS
Standard : NTSC
Color space : YUV
Chroma subsampling : 4:2:0
Bit depth : 8 bits
Scan type : Progressive
Bits/(Pixel*Frame) : 0.089
Stream size : 2.88 GiB (93%)
Color range : Limited
Color primaries : BT.709
Transfer characteristics : BT.709
Matrix coefficients : BT.709
Codec configuration box : avc

The Gate of Adventure

Audio
ID : 2
Format : AAC LC
Format/Info : Advanced Audio
Codec ID : mp4a-40-2
Duration : 2 h 47 min
Bit rate mode : Constant
Bit rate : 192 kb/s
Channel(s) : 2 channels
Channel layout : L R
Sampling rate : 48.0 kHz
Frame rate : 46.875 FPS (1024 SPF)
Compression mode : Lossy
Stream size : 227 MiB (7%)
Default : Yes
Alternate group : 1

General
Complete name : 2021.08.15.Dragon.Gate.The.Gate.of.Adventure.Day.6.Evening.mp4
Format : MPEG-4
Format profile : Base Media
Codec ID : isom
File size : 3.24 GiB
Duration : 2 h 54 min
Overall bit rate mode : Variable
Overall bit rate : 2 653 kb/s

The Gate of Adventure

Video
ID : 1
Format : AVC
Format/Info : Advanced Video
Duration : 2 h 54 min
Bit rate mode : Variable
Bit rate : 2 455 kb/s
Maximum bit rate : 2 703 kb/s
Width : 1 280 pixels
Height : 720 pixels
Display aspect ratio : 16:9
Frame rate mode : Variable
Frame rate : 29.970 (29970/1000) FPS
Minimum frame rate : 19.608 FPS
Maximum frame rate : 33.333 FPS
Original frame rate : 30.000 FPS
Standard : NTSC
Color space : YUV
Chroma subsampling : 4:2:0
Bit depth : 8 bits
Scan type : Progressive
Bits/(Pixel*Frame) : 0.089
Stream size : 3.00 GiB (93%)
Color range : Limited
Color primaries : BT.709
Transfer characteristics : BT.709
Matrix coefficients : BT.709
Codec configuration box : avcC

The Gate of Adventure

Audio
ID : 2
Format : AAC LC
Format/Info : Advanced Audio
Codec ID : mp4a-40-2
Duration : 2 h 54 min
Bit rate mode : Constant
Bit rate : 192 kb/s
Channel(s) : 2 channels
Channel layout : L R
Sampling rate : 48.0 kHz
Frame rate : 46.875 FPS (1024 SPF)
Compression mode : Lossy
Stream size : 237 MiB (7%)
Default : Yes
Alternate group : 1

The Gate of Adventure

General
Complete name : 2021.08.15.Dragon.Gate.The.Gate.of.Adventure.Day.6.Afternoon.mp4
Format : MPEG-4
Format profile : Base Media
Codec ID : isom
File size : 3.11 GiB
Duration : 2 h 47 min
Overall bit rate mode : Variable
Overall bit rate : 2 653 kb/s

Video
ID : 1
Format : AVC
Format/Info : Advanced Video
Duration : 2 h 47 min
Bit rate mode : Variable
Bit rate : 2 455 kb/s
Maximum bit rate : 2 703 kb/s
Width : 1 280 pixels
Height : 720 pixels
Display aspect ratio : 16:9
Frame rate mode : Variable
Frame rate : 29.970 (29970/1000) FPS
Minimum frame rate : 20.000 FPS
Maximum frame rate : 34.483 FPS
Original frame rate : 30.000 FPS
Standard : NTSC
Color space : YUV
Chroma subsampling : 4:2:0
Bit depth : 8 bits
Scan type : Progressive
Bits/(Pixel*Frame) : 0.089
Stream size : 2.88 GiB (93%)
Color range : Limited
Color primaries : BT.709
Transfer characteristics : BT.709
Matrix coefficients : BT.709
Codec configuration box : avc

The Gate of Adventure

Audio
ID : 2
Format : AAC LC
Format/Info : Advanced Audio
Codec ID : mp4a-40-2
Duration : 2 h 47 min
Bit rate mode : Constant
Bit rate : 192 kb/s
Channel(s) : 2 channels
Channel layout : L R
Sampling rate : 48.0 kHz
Frame rate : 46.875 FPS (1024 SPF)
Compression mode : Lossy
Stream size : 227 MiB (7%)
Default : Yes
Alternate group : 1

General
Complete name : 2021.08.15.Dragon.Gate.The.Gate.of.Adventure.Day.6.Evening.mp4
Format : MPEG-4
Format profile : Base Media
Codec ID : isom
File size : 3.24 GiB
Duration : 2 h 54 min
Overall bit rate mode : Variable
Overall bit rate : 2 653 kb/s

The Gate of Adventure

Video
ID : 1
Format : AVC
Format/Info : Advanced Video
Duration : 2 h 54 min
Bit rate mode : Variable
Bit rate : 2 455 kb/s
Maximum bit rate : 2 703 kb/s
Width : 1 280 pixels
Height : 720 pixels
Display aspect ratio : 16:9
Frame rate mode : Variable
Frame rate : 29.970 (29970/1000) FPS
Minimum frame rate : 19.608 FPS
Maximum frame rate : 33.333 FPS
Original frame rate : 30.000 FPS
Standard : NTSC
Color space : YUV
Chroma subsampling : 4:2:0
Bit depth : 8 bits
Scan type : Progressive
Bits/(Pixel*Frame) : 0.089
Stream size : 3.00 GiB (93%)
Color range : Limited
Color primaries : BT.709
Transfer characteristics : BT.709
Matrix coefficients : BT.709
Codec configuration box : avcC

The Gate of Adventure

Audio
ID : 2
Format : AAC LC
Format/Info : Advanced Audio
Codec ID : mp4a-40-2
Duration : 2 h 54 min
Bit rate mode : Constant
Bit rate : 192 kb/s
Channel(s) : 2 channels
Channel layout : L R
Sampling rate : 48.0 kHz
Frame rate : 46.875 FPS (1024 SPF)
Compression mode : Lossy
Stream size : 237 MiB (7%)
Default : Yes
Alternate group : 1

The Gate of Adventure

General
Complete name : 2021.08.15.Dragon.Gate.The.Gate.of.Adventure.Day.6.Afternoon.mp4
Format : MPEG-4
Format profile : Base Media
Codec ID : isom
File size : 3.11 GiB
Duration : 2 h 47 min
Overall bit rate mode : Variable
Overall bit rate : 2 653 kb/s

Video
ID : 1
Format : AVC
Format/Info : Advanced Video
Duration : 2 h 47 min
Bit rate mode : Variable
Bit rate : 2 455 kb/s
Maximum bit rate : 2 703 kb/s
Width : 1 280 pixels
Height : 720 pixels
Display aspect ratio : 16:9
Frame rate mode : Variable
Frame rate : 29.970 (29970/1000) FPS
Minimum frame rate : 20.000 FPS
Maximum frame rate : 34.483 FPS
Original frame rate : 30.000 FPS
Standard : NTSC
Color space : YUV
Chroma subsampling : 4:2:0
Bit depth : 8 bits
Scan type : Progressive
Bits/(Pixel*Frame) : 0.089
Stream size : 2.88 GiB (93%)
Color range : Limited
Color primaries : BT.709
Transfer characteristics : BT.709
Matrix coefficients : BT.709
Codec configuration box : avc

The Gate of Adventure

Audio
ID : 2
Format : AAC LC
Format/Info : Advanced Audio
Codec ID : mp4a-40-2
Duration : 2 h 47 min
Bit rate mode : Constant
Bit rate : 192 kb/s
Channel(s) : 2 channels
Channel layout : L R
Sampling rate : 48.0 kHz
Frame rate : 46.875 FPS (1024 SPF)
Compression mode : Lossy
Stream size : 227 MiB (7%)
Default : Yes
Alternate group : 1

General
Complete name : 2021.08.15.Dragon.Gate.The.Gate.of.Adventure.Day.6.Evening.mp4
Format : MPEG-4
Format profile : Base Media
Codec ID : isom
File size : 3.24 GiB
Duration : 2 h 54 min
Overall bit rate mode : Variable
Overall bit rate : 2 653 kb/s

The Gate of Adventure

Video
ID : 1
Format : AVC
Format/Info : Advanced Video
Duration : 2 h 54 min
Bit rate mode : Variable
Bit rate : 2 455 kb/s
Maximum bit rate : 2 703 kb/s
Width : 1 280 pixels
Height : 720 pixels
Display aspect ratio : 16:9
Frame rate mode : Variable
Frame rate : 29.970 (29970/1000) FPS
Minimum frame rate : 19.608 FPS
Maximum frame rate : 33.333 FPS
Original frame rate : 30.000 FPS
Standard : NTSC
Color space : YUV
Chroma subsampling : 4:2:0
Bit depth : 8 bits
Scan type : Progressive
Bits/(Pixel*Frame) : 0.089
Stream size : 3.00 GiB (93%)
Color range : Limited
Color primaries : BT.709
Transfer characteristics : BT.709
Matrix coefficients : BT.709
Codec configuration box : avcC

The Gate of Adventure

Audio
ID : 2
Format : AAC LC
Format/Info : Advanced Audio
Codec ID : mp4a-40-2
Duration : 2 h 54 min
Bit rate mode : Constant
Bit rate : 192 kb/s
Channel(s) : 2 channels
Channel layout : L R
Sampling rate : 48.0 kHz
Frame rate : 46.875 FPS (1024 SPF)
Compression mode : Lossy
Stream size : 237 MiB (7%)
Default : Yes
Alternate group : 1

The Gate of Adventure

General
Complete name : 2021.08.15.Dragon.Gate.The.Gate.of.Adventure.Day.6.Afternoon.mp4
Format : MPEG-4
Format profile : Base Media
Codec ID : isom
File size : 3.11 GiB
Duration : 2 h 47 min
Overall bit rate mode : Variable
Overall bit rate : 2 653 kb/s

Video
ID : 1
Format : AVC
Format/Info : Advanced Video
Duration : 2 h 47 min
Bit rate mode : Variable
Bit rate : 2 455 kb/s
Maximum bit rate : 2 703 kb/s
Width : 1 280 pixels
Height : 720 pixels
Display aspect ratio : 16:9
Frame rate mode : Variable
Frame rate : 29.970 (29970/1000) FPS
Minimum frame rate : 20.000 FPS
Maximum frame rate : 34.483 FPS
Original frame rate : 30.000 FPS
Standard : NTSC
Color space : YUV
Chroma subsampling : 4:2:0
Bit depth : 8 bits
Scan type : Progressive
Bits/(Pixel*Frame) : 0.089
Stream size : 2.88 GiB (93%)
Color range : Limited
Color primaries : BT.709
Transfer characteristics : BT.709
Matrix coefficients : BT.709
Codec configuration box : avc

The Gate of Adventure

Audio
ID : 2
Format : AAC LC
Format/Info : Advanced Audio
Codec ID : mp4a-40-2
Duration : 2 h 47 min
Bit rate mode : Constant
Bit rate : 192 kb/s
Channel(s) : 2 channels
Channel layout : L R
Sampling rate : 48.0 kHz
Frame rate : 46.875 FPS (1024 SPF)
Compression mode : Lossy
Stream size : 227 MiB (7%)
Default : Yes
Alternate group : 1

General
Complete name : 2021.08.15.Dragon.Gate.The.Gate.of.Adventure.Day.6.Evening.mp4
Format : MPEG-4
Format profile : Base Media
Codec ID : isom
File size : 3.24 GiB
Duration : 2 h 54 min
Overall bit rate mode : Variable
Overall bit rate : 2 653 kb/s

The Gate of Adventure

Video
ID : 1
Format : AVC
Format/Info : Advanced Video
Duration : 2 h 54 min
Bit rate mode : Variable
Bit rate : 2 455 kb/s
Maximum bit rate : 2 703 kb/s
Width : 1 280 pixels
Height : 720 pixels
Display aspect ratio : 16:9
Frame rate mode : Variable
Frame rate : 29.970 (29970/1000) FPS
Minimum frame rate : 19.608 FPS
Maximum frame rate : 33.333 FPS
Original frame rate : 30.000 FPS
Standard : NTSC
Color space : YUV
Chroma subsampling : 4:2:0
Bit depth : 8 bits
Scan type : Progressive
Bits/(Pixel*Frame) : 0.089
Stream size : 3.00 GiB (93%)
Color range : Limited
Color primaries : BT.709
Transfer characteristics : BT.709
Matrix coefficients : BT.709
Codec configuration box : avcC

The Gate of Adventure

Audio
ID : 2
Format : AAC LC
Format/Info : Advanced Audio
Codec ID : mp4a-40-2
Duration : 2 h 54 min
Bit rate mode : Constant
Bit rate : 192 kb/s
Channel(s) : 2 channels
Channel layout : L R
Sampling rate : 48.0 kHz
Frame rate : 46.875 FPS (1024 SPF)
Compression mode : Lossy
Stream size : 237 MiB (7%)
Default : Yes
Alternate group : 1

The Gate of Adventure

General
Complete name : 2021.08.15.Dragon.Gate.The.Gate.of.Adventure.Day.6.Afternoon.mp4
Format : MPEG-4
Format profile : Base Media
Codec ID : isom
File size : 3.11 GiB
Duration : 2 h 47 min
Overall bit rate mode : Variable
Overall bit rate : 2 653 kb/s

Video
ID : 1
Format : AVC
Format/Info : Advanced Video
Duration : 2 h 47 min
Bit rate mode : Variable
Bit rate : 2 455 kb/s
Maximum bit rate : 2 703 kb/s
Width : 1 280 pixels
Height : 720 pixels
Display aspect ratio : 16:9
Frame rate mode : Variable
Frame rate : 29.970 (29970/1000) FPS
Minimum frame rate : 20.000 FPS
Maximum frame rate : 34.483 FPS
Original frame rate : 30.000 FPS
Standard : NTSC
Color space : YUV
Chroma subsampling : 4:2:0
Bit depth : 8 bits
Scan type : Progressive
Bits/(Pixel*Frame) : 0.089
Stream size : 2.88 GiB (93%)
Color range : Limited
Color primaries : BT.709
Transfer characteristics : BT.709
Matrix coefficients : BT.709
Codec configuration box : avc

The Gate of Adventure

Audio
ID : 2
Format : AAC LC
Format/Info : Advanced Audio
Codec ID : mp4a-40-2
Duration : 2 h 47 min
Bit rate mode : Constant
Bit rate : 192 kb/s
Channel(s) : 2 channels
Channel layout : L R
Sampling rate : 48.0 kHz
Frame rate : 46.875 FPS (1024 SPF)
Compression mode : Lossy
Stream size : 227 MiB (7%)
Default : Yes
Alternate group : 1

General
Complete name : 2021.08.15.Dragon.Gate.The.Gate.of.Adventure.Day.6.Evening.mp4
Format : MPEG-4
Format profile : Base Media
Codec ID : isom
File size : 3.24 GiB
Duration : 2 h 54 min
Overall bit rate mode : Variable
Overall bit rate : 2 653 kb/s

The Gate of Adventure

Video
ID : 1
Format : AVC
Format/Info : Advanced Video
Duration : 2 h 54 min
Bit rate mode : Variable
Bit rate : 2 455 kb/s
Maximum bit rate : 2 703 kb/s
Width : 1 280 pixels
Height : 720 pixels
Display aspect ratio : 16:9
Frame rate mode : Variable
Frame rate : 29.970 (29970/1000) FPS
Minimum frame rate : 19.608 FPS
Maximum frame rate : 33.333 FPS
Original frame rate : 30.000 FPS
Standard : NTSC
Color space : YUV
Chroma subsampling : 4:2:0
Bit depth : 8 bits
Scan type : Progressive
Bits/(Pixel*Frame) : 0.089
Stream size : 3.00 GiB (93%)
Color range : Limited
Color primaries : BT.709
Transfer characteristics : BT.709
Matrix coefficients : BT.709
Codec configuration box : avcC

The Gate of Adventure

Audio
ID : 2
Format : AAC LC
Format/Info : Advanced Audio
Codec ID : mp4a-40-2
Duration : 2 h 54 min
Bit rate mode : Constant
Bit rate : 192 kb/s
Channel(s) : 2 channels
Channel layout : L R
Sampling rate : 48.0 kHz
Frame rate : 46.875 FPS (1024 SPF)
Compression mode : Lossy
Stream size : 237 MiB (7%)
Default : Yes
Alternate group : 1

The Gate of Adventure

v

General
Complete name : 2021.08.15.Dragon.Gate.The.Gate.of.Adventure.Day.6.Afternoon.mp4
Format : MPEG-4
Format profile : Base Media
Codec ID : isom
File size : 3.11 GiB
Duration : 2 h 47 min
Overall bit rate mode : Variable
Overall bit rate : 2 653 kb/s

Video
ID : 1
Format : AVC
Format/Info : Advanced Video
Duration : 2 h 47 min
Bit rate mode : Variable
Bit rate : 2 455 kb/s
Maximum bit rate : 2 703 kb/s
Width : 1 280 pixels
Height : 720 pixels
Display aspect ratio : 16:9
Frame rate mode : Variable
Frame rate : 29.970 (29970/1000) FPS
Minimum frame rate : 20.000 FPS
Maximum frame rate : 34.483 FPS
Original frame rate : 30.000 FPS
Standard : NTSC
Color space : YUV
Chroma subsampling : 4:2:0
Bit depth : 8 bits
Scan type : Progressive
Bits/(Pixel*Frame) : 0.089
Stream size : 2.88 GiB (93%)
Color range : Limited
Color primaries : BT.709
Transfer characteristics : BT.709
Matrix coefficients : BT.709
Codec configuration box : avc

The Gate of Adventure

Audio
ID : 2
Format : AAC LC
Format/Info : Advanced Audio
Codec ID : mp4a-40-2
Duration : 2 h 47 min
Bit rate mode : Constant
Bit rate : 192 kb/s
Channel(s) : 2 channels
Channel layout : L R
Sampling rate : 48.0 kHz
Frame rate : 46.875 FPS (1024 SPF)
Compression mode : Lossy
Stream size : 227 MiB (7%)
Default : Yes
Alternate group : 1

General
Complete name : 2021.08.15.Dragon.Gate.The.Gate.of.Adventure.Day.6.Evening.mp4
Format : MPEG-4
Format profile : Base Media
Codec ID : isom
File size : 3.24 GiB
Duration : 2 h 54 min
Overall bit rate mode : Variable
Overall bit rate : 2 653 kb/s

The Gate of Adventure

Video
ID : 1
Format : AVC
Format/Info : Advanced Video
Duration : 2 h 54 min
Bit rate mode : Variable
Bit rate : 2 455 kb/s
Maximum bit rate : 2 703 kb/s
Width : 1 280 pixels
Height : 720 pixels
Display aspect ratio : 16:9
Frame rate mode : Variable
Frame rate : 29.970 (29970/1000) FPS
Minimum frame rate : 19.608 FPS
Maximum frame rate : 33.333 FPS
Original frame rate : 30.000 FPS
Standard : NTSC
Color space : YUV
Chroma subsampling : 4:2:0
Bit depth : 8 bits
Scan type : Progressive
Bits/(Pixel*Frame) : 0.089
Stream size : 3.00 GiB (93%)
Color range : Limited
Color primaries : BT.709
Transfer characteristics : BT.709
Matrix coefficients : BT.709
Codec configuration box : avcC

The Gate of Adventure

Audio
ID : 2
Format : AAC LC
Format/Info : Advanced Audio
Codec ID : mp4a-40-2
Duration : 2 h 54 min
Bit rate mode : Constant
Bit rate : 192 kb/s
Channel(s) : 2 channels
Channel layout : L R
Sampling rate : 48.0 kHz
Frame rate : 46.875 FPS (1024 SPF)
Compression mode : Lossy
Stream size : 237 MiB (7%)
Default : Yes
Alternate group : 1

The Gate of Adventure

General
Complete name : 2021.08.15.Dragon.Gate.The.Gate.of.Adventure.Day.6.Afternoon.mp4
Format : MPEG-4
Format profile : Base Media
Codec ID : isom
File size : 3.11 GiB
Duration : 2 h 47 min
Overall bit rate mode : Variable
Overall bit rate : 2 653 kb/s

Video
ID : 1
Format : AVC
Format/Info : Advanced Video
Duration : 2 h 47 min
Bit rate mode : Variable
Bit rate : 2 455 kb/s
Maximum bit rate : 2 703 kb/s
Width : 1 280 pixels
Height : 720 pixels
Display aspect ratio : 16:9
Frame rate mode : Variable
Frame rate : 29.970 (29970/1000) FPS
Minimum frame rate : 20.000 FPS
Maximum frame rate : 34.483 FPS
Original frame rate : 30.000 FPS
Standard : NTSC
Color space : YUV
Chroma subsampling : 4:2:0
Bit depth : 8 bits
Scan type : Progressive
Bits/(Pixel*Frame) : 0.089
Stream size : 2.88 GiB (93%)
Color range : Limited
Color primaries : BT.709
Transfer characteristics : BT.709
Matrix coefficients : BT.709
Codec configuration box : avc

The Gate of Adventure

Audio
ID : 2
Format : AAC LC
Format/Info : Advanced Audio
Codec ID : mp4a-40-2
Duration : 2 h 47 min
Bit rate mode : Constant
Bit rate : 192 kb/s
Channel(s) : 2 channels
Channel layout : L R
Sampling rate : 48.0 kHz
Frame rate : 46.875 FPS (1024 SPF)
Compression mode : Lossy
Stream size : 227 MiB (7%)
Default : Yes
Alternate group : 1

General
Complete name : 2021.08.15.Dragon.Gate.The.Gate.of.Adventure.Day.6.Evening.mp4
Format : MPEG-4
Format profile : Base Media
Codec ID : isom
File size : 3.24 GiB
Duration : 2 h 54 min
Overall bit rate mode : Variable
Overall bit rate : 2 653 kb/s

The Gate of Adventure

Video
ID : 1
Format : AVC
Format/Info : Advanced Video
Duration : 2 h 54 min
Bit rate mode : Variable
Bit rate : 2 455 kb/s
Maximum bit rate : 2 703 kb/s
Width : 1 280 pixels
Height : 720 pixels
Display aspect ratio : 16:9
Frame rate mode : Variable
Frame rate : 29.970 (29970/1000) FPS
Minimum frame rate : 19.608 FPS
Maximum frame rate : 33.333 FPS
Original frame rate : 30.000 FPS
Standard : NTSC
Color space : YUV
Chroma subsampling : 4:2:0
Bit depth : 8 bits
Scan type : Progressive
Bits/(Pixel*Frame) : 0.089
Stream size : 3.00 GiB (93%)
Color range : Limited
Color primaries : BT.709
Transfer characteristics : BT.709
Matrix coefficients : BT.709
Codec configuration box : avcC

The Gate of Adventure

Audio
ID : 2
Format : AAC LC
Format/Info : Advanced Audio
Codec ID : mp4a-40-2
Duration : 2 h 54 min
Bit rate mode : Constant
Bit rate : 192 kb/s
Channel(s) : 2 channels
Channel layout : L R
Sampling rate : 48.0 kHz
Frame rate : 46.875 FPS (1024 SPF)
Compression mode : Lossy
Stream size : 237 MiB (7%)
Default : Yes
Alternate group : 1

The Gate of Adventure

General
Complete name : 2021.08.15.Dragon.Gate.The.Gate.of.Adventure.Day.6.Afternoon.mp4
Format : MPEG-4
Format profile : Base Media
Codec ID : isom
File size : 3.11 GiB
Duration : 2 h 47 min
Overall bit rate mode : Variable
Overall bit rate : 2 653 kb/s

Video
ID : 1
Format : AVC
Format/Info : Advanced Video
Duration : 2 h 47 min
Bit rate mode : Variable
Bit rate : 2 455 kb/s
Maximum bit rate : 2 703 kb/s
Width : 1 280 pixels
Height : 720 pixels
Display aspect ratio : 16:9
Frame rate mode : Variable
Frame rate : 29.970 (29970/1000) FPS
Minimum frame rate : 20.000 FPS
Maximum frame rate : 34.483 FPS
Original frame rate : 30.000 FPS
Standard : NTSC
Color space : YUV
Chroma subsampling : 4:2:0
Bit depth : 8 bits
Scan type : Progressive
Bits/(Pixel*Frame) : 0.089
Stream size : 2.88 GiB (93%)
Color range : Limited
Color primaries : BT.709
Transfer characteristics : BT.709
Matrix coefficients : BT.709
Codec configuration box : avc

The Gate of Adventure

Audio
ID : 2
Format : AAC LC
Format/Info : Advanced Audio
Codec ID : mp4a-40-2
Duration : 2 h 47 min
Bit rate mode : Constant
Bit rate : 192 kb/s
Channel(s) : 2 channels
Channel layout : L R
Sampling rate : 48.0 kHz
Frame rate : 46.875 FPS (1024 SPF)
Compression mode : Lossy
Stream size : 227 MiB (7%)
Default : Yes
Alternate group : 1

General
Complete name : 2021.08.15.Dragon.Gate.The.Gate.of.Adventure.Day.6.Evening.mp4
Format : MPEG-4
Format profile : Base Media
Codec ID : isom
File size : 3.24 GiB
Duration : 2 h 54 min
Overall bit rate mode : Variable
Overall bit rate : 2 653 kb/s

The Gate of Adventure

Video
ID : 1
Format : AVC
Format/Info : Advanced Video
Duration : 2 h 54 min
Bit rate mode : Variable
Bit rate : 2 455 kb/s
Maximum bit rate : 2 703 kb/s
Width : 1 280 pixels
Height : 720 pixels
Display aspect ratio : 16:9
Frame rate mode : Variable
Frame rate : 29.970 (29970/1000) FPS
Minimum frame rate : 19.608 FPS
Maximum frame rate : 33.333 FPS
Original frame rate : 30.000 FPS
Standard : NTSC
Color space : YUV
Chroma subsampling : 4:2:0
Bit depth : 8 bits
Scan type : Progressive
Bits/(Pixel*Frame) : 0.089
Stream size : 3.00 GiB (93%)
Color range : Limited
Color primaries : BT.709
Transfer characteristics : BT.709
Matrix coefficients : BT.709
Codec configuration box : avcC

The Gate of Adventure

Audio
ID : 2
Format : AAC LC
Format/Info : Advanced Audio
Codec ID : mp4a-40-2
Duration : 2 h 54 min
Bit rate mode : Constant
Bit rate : 192 kb/s
Channel(s) : 2 channels
Channel layout : L R
Sampling rate : 48.0 kHz
Frame rate : 46.875 FPS (1024 SPF)
Compression mode : Lossy
Stream size : 237 MiB (7%)
Default : Yes
Alternate group : 1

The Gate of Adventure

 

[collapse]

 

 

https://dx-tv.com/

You May Also Like

Leave a Reply

Your email address will not be published. Required fields are marked *

This site uses Akismet to reduce spam. Learn how your comment data is processed.