Dragon Gate The Gate of Adventure Day 3 Online Free

Dragon Gate The Gate of Adventure Day 3 2021 08 09 Online Free Replay DX-TV

Dragon Gate

 Dragon Gate

 

 

 

Download Links with premium High Speed


Dopapk

 

 

Show Links

 

http://shrt10.com/rS9AXD

 

[collapse]

 

 

Nitroflare

 

 

Show Links

 

http://shrt10.com/s92c79

 

[collapse]

 

 

Rapidgator

 

 

Show Links

 

http://shrt10.com/9NxNJFsu

 

[collapse]

 

 

Uploaded

 

 

Show Links

 

http://shrt10.com/53Q62Q1D

 

[collapse]

 

 

Watch online

 

Server 1

 

 

 

 

watch now

 

 

 

 

Server-2

 

 

 

 

Dragon Gate

 

 

 

|Server-3

 

 

 

 

watch now

 

 

Uploaded By Site DX-TV.com

 

 

Show Info This Show

Dragon Gate

 

Complete name : 2021.08.09.Dragon.Gate.The.Gate.of.Adventure.Day.3.mp4
Format : MPEG-4
Format profile : Base Media
Codec ID : isom
File size : 3.03 GiB
Duration : 2 h 43 min
Overall bit rate mode : Variable
Overall bit rate : 2 651 kb/s

Dragon Gate

Video
ID : 1
Format : AVC
Format/Info : Advanced Video
Duration : 2 h 43 min
Bit rate mode : Variable
Bit rate : 2 455 kb/s
Maximum bit rate : 2 703 kb/s
Width : 1 280 pixels
Height : 720 pixels
Display aspect ratio : 16:9
Frame rate mode : Variable
Frame rate : 29.970 (29970/1000) FPS
Minimum frame rate : 0.166 FPS
Maximum frame rate : 33.333 FPS
Original frame rate : 30.000 FPS
Standard : NTSC
Color space : YUV
Chroma subsampling : 4:2:0
Bit depth : 8 bits
Scan type : Progressive
Bits/(Pixel*Frame) : 0.089
Stream size : 2.80 GiB (93%)
Color range : Limited
Color primaries : BT.709
Transfer characteristics : BT.709
Matrix coefficients : BT.709
Codec configuration box : avc

Dragon Gate

Audio
ID : 2
Format : AAC LC
Format/Info : Advanced Audio
Codec ID : mp4a-40-2
Duration : 2 h 43 min
Bit rate mode : Constant
Bit rate : 192 kb/s
Channel(s) : 2 channels
Channel layout : L R
Sampling rate : 48.0 kHz
Frame rate : 46.875 FPS (1024 SPF)
Compression mode : Lossy
Stream size : 222 MiB (7%)
Default : Yes
Alternate group : 1

Dragon Gate

Complete name : 2021.08.09.Dragon.Gate.The.Gate.of.Adventure.Day.3.mp4
Format : MPEG-4
Format profile : Base Media
Codec ID : isom
File size : 3.03 GiB
Duration : 2 h 43 min
Overall bit rate mode : Variable
Overall bit rate : 2 651 kb/s

Dragon Gate

Video
ID : 1
Format : AVC
Format/Info : Advanced Video
Duration : 2 h 43 min
Bit rate mode : Variable
Bit rate : 2 455 kb/s
Maximum bit rate : 2 703 kb/s
Width : 1 280 pixels
Height : 720 pixels
Display aspect ratio : 16:9
Frame rate mode : Variable
Frame rate : 29.970 (29970/1000) FPS
Minimum frame rate : 0.166 FPS
Maximum frame rate : 33.333 FPS
Original frame rate : 30.000 FPS
Standard : NTSC
Color space : YUV
Chroma subsampling : 4:2:0
Bit depth : 8 bits
Scan type : Progressive
Bits/(Pixel*Frame) : 0.089
Stream size : 2.80 GiB (93%)
Color range : Limited
Color primaries : BT.709
Transfer characteristics : BT.709
Matrix coefficients : BT.709
Codec configuration box : avc

Dragon Gate

Audio
ID : 2
Format : AAC LC
Format/Info : Advanced Audio
Codec ID : mp4a-40-2
Duration : 2 h 43 min
Bit rate mode : Constant
Bit rate : 192 kb/s
Channel(s) : 2 channels
Channel layout : L R
Sampling rate : 48.0 kHz
Frame rate : 46.875 FPS (1024 SPF)
Compression mode : Lossy
Stream size : 222 MiB (7%)
Default : Yes
Alternate group : 1

Dragon Gate

Complete name : 2021.08.09.Dragon.Gate.The.Gate.of.Adventure.Day.3.mp4
Format : MPEG-4
Format profile : Base Media
Codec ID : isom
File size : 3.03 GiB
Duration : 2 h 43 min
Overall bit rate mode : Variable
Overall bit rate : 2 651 kb/s

Dragon Gate

Video
ID : 1
Format : AVC
Format/Info : Advanced Video
Duration : 2 h 43 min
Bit rate mode : Variable
Bit rate : 2 455 kb/s
Maximum bit rate : 2 703 kb/s
Width : 1 280 pixels
Height : 720 pixels
Display aspect ratio : 16:9
Frame rate mode : Variable
Frame rate : 29.970 (29970/1000) FPS
Minimum frame rate : 0.166 FPS
Maximum frame rate : 33.333 FPS
Original frame rate : 30.000 FPS
Standard : NTSC
Color space : YUV
Chroma subsampling : 4:2:0
Bit depth : 8 bits
Scan type : Progressive
Bits/(Pixel*Frame) : 0.089
Stream size : 2.80 GiB (93%)
Color range : Limited
Color primaries : BT.709
Transfer characteristics : BT.709
Matrix coefficients : BT.709
Codec configuration box : avc

Dragon Gate

Audio
ID : 2
Format : AAC LC
Format/Info : Advanced Audio
Codec ID : mp4a-40-2
Duration : 2 h 43 min
Bit rate mode : Constant
Bit rate : 192 kb/s
Channel(s) : 2 channels
Channel layout : L R
Sampling rate : 48.0 kHz
Frame rate : 46.875 FPS (1024 SPF)
Compression mode : Lossy
Stream size : 222 MiB (7%)
Default : Yes
Alternate group : 1

Dragon Gate

Complete name : 2021.08.09.Dragon.Gate.The.Gate.of.Adventure.Day.3.mp4
Format : MPEG-4
Format profile : Base Media
Codec ID : isom
File size : 3.03 GiB
Duration : 2 h 43 min
Overall bit rate mode : Variable
Overall bit rate : 2 651 kb/s

Dragon Gate

Video
ID : 1
Format : AVC
Format/Info : Advanced Video
Duration : 2 h 43 min
Bit rate mode : Variable
Bit rate : 2 455 kb/s
Maximum bit rate : 2 703 kb/s
Width : 1 280 pixels
Height : 720 pixels
Display aspect ratio : 16:9
Frame rate mode : Variable
Frame rate : 29.970 (29970/1000) FPS
Minimum frame rate : 0.166 FPS
Maximum frame rate : 33.333 FPS
Original frame rate : 30.000 FPS
Standard : NTSC
Color space : YUV
Chroma subsampling : 4:2:0
Bit depth : 8 bits
Scan type : Progressive
Bits/(Pixel*Frame) : 0.089
Stream size : 2.80 GiB (93%)
Color range : Limited
Color primaries : BT.709
Transfer characteristics : BT.709
Matrix coefficients : BT.709
Codec configuration box : avc

Dragon Gate

Audio
ID : 2
Format : AAC LC
Format/Info : Advanced Audio
Codec ID : mp4a-40-2
Duration : 2 h 43 min
Bit rate mode : Constant
Bit rate : 192 kb/s
Channel(s) : 2 channels
Channel layout : L R
Sampling rate : 48.0 kHz
Frame rate : 46.875 FPS (1024 SPF)
Compression mode : Lossy
Stream size : 222 MiB (7%)
Default : Yes
Alternate group : 1

Dragon Gate

Complete name : 2021.08.09.Dragon.Gate.The.Gate.of.Adventure.Day.3.mp4
Format : MPEG-4
Format profile : Base Media
Codec ID : isom
File size : 3.03 GiB
Duration : 2 h 43 min
Overall bit rate mode : Variable
Overall bit rate : 2 651 kb/s

Dragon Gate

Video
ID : 1
Format : AVC
Format/Info : Advanced Video
Duration : 2 h 43 min
Bit rate mode : Variable
Bit rate : 2 455 kb/s
Maximum bit rate : 2 703 kb/s
Width : 1 280 pixels
Height : 720 pixels
Display aspect ratio : 16:9
Frame rate mode : Variable
Frame rate : 29.970 (29970/1000) FPS
Minimum frame rate : 0.166 FPS
Maximum frame rate : 33.333 FPS
Original frame rate : 30.000 FPS
Standard : NTSC
Color space : YUV
Chroma subsampling : 4:2:0
Bit depth : 8 bits
Scan type : Progressive
Bits/(Pixel*Frame) : 0.089
Stream size : 2.80 GiB (93%)
Color range : Limited
Color primaries : BT.709
Transfer characteristics : BT.709
Matrix coefficients : BT.709
Codec configuration box : avc

Dragon Gate

Audio
ID : 2
Format : AAC LC
Format/Info : Advanced Audio
Codec ID : mp4a-40-2
Duration : 2 h 43 min
Bit rate mode : Constant
Bit rate : 192 kb/s
Channel(s) : 2 channels
Channel layout : L R
Sampling rate : 48.0 kHz
Frame rate : 46.875 FPS (1024 SPF)
Compression mode : Lossy
Stream size : 222 MiB (7%)
Default : Yes
Alternate group : 1

Dragon Gate

Complete name : 2021.08.09.Dragon.Gate.The.Gate.of.Adventure.Day.3.mp4
Format : MPEG-4
Format profile : Base Media
Codec ID : isom
File size : 3.03 GiB
Duration : 2 h 43 min
Overall bit rate mode : Variable
Overall bit rate : 2 651 kb/s

Dragon Gate

Video
ID : 1
Format : AVC
Format/Info : Advanced Video
Duration : 2 h 43 min
Bit rate mode : Variable
Bit rate : 2 455 kb/s
Maximum bit rate : 2 703 kb/s
Width : 1 280 pixels
Height : 720 pixels
Display aspect ratio : 16:9
Frame rate mode : Variable
Frame rate : 29.970 (29970/1000) FPS
Minimum frame rate : 0.166 FPS
Maximum frame rate : 33.333 FPS
Original frame rate : 30.000 FPS
Standard : NTSC
Color space : YUV
Chroma subsampling : 4:2:0
Bit depth : 8 bits
Scan type : Progressive
Bits/(Pixel*Frame) : 0.089
Stream size : 2.80 GiB (93%)
Color range : Limited
Color primaries : BT.709
Transfer characteristics : BT.709
Matrix coefficients : BT.709
Codec configuration box : avc

Dragon Gate

Audio
ID : 2
Format : AAC LC
Format/Info : Advanced Audio
Codec ID : mp4a-40-2
Duration : 2 h 43 min
Bit rate mode : Constant
Bit rate : 192 kb/s
Channel(s) : 2 channels
Channel layout : L R
Sampling rate : 48.0 kHz
Frame rate : 46.875 FPS (1024 SPF)
Compression mode : Lossy
Stream size : 222 MiB (7%)
Default : Yes
Alternate group : 1

Dragon Gate

Complete name : 2021.08.09.Dragon.Gate.The.Gate.of.Adventure.Day.3.mp4
Format : MPEG-4
Format profile : Base Media
Codec ID : isom
File size : 3.03 GiB
Duration : 2 h 43 min
Overall bit rate mode : Variable
Overall bit rate : 2 651 kb/s

Dragon Gate

Video
ID : 1
Format : AVC
Format/Info : Advanced Video
Duration : 2 h 43 min
Bit rate mode : Variable
Bit rate : 2 455 kb/s
Maximum bit rate : 2 703 kb/s
Width : 1 280 pixels
Height : 720 pixels
Display aspect ratio : 16:9
Frame rate mode : Variable
Frame rate : 29.970 (29970/1000) FPS
Minimum frame rate : 0.166 FPS
Maximum frame rate : 33.333 FPS
Original frame rate : 30.000 FPS
Standard : NTSC
Color space : YUV
Chroma subsampling : 4:2:0
Bit depth : 8 bits
Scan type : Progressive
Bits/(Pixel*Frame) : 0.089
Stream size : 2.80 GiB (93%)
Color range : Limited
Color primaries : BT.709
Transfer characteristics : BT.709
Matrix coefficients : BT.709
Codec configuration box : avc

Dragon Gate

Audio
ID : 2
Format : AAC LC
Format/Info : Advanced Audio
Codec ID : mp4a-40-2
Duration : 2 h 43 min
Bit rate mode : Constant
Bit rate : 192 kb/s
Channel(s) : 2 channels
Channel layout : L R
Sampling rate : 48.0 kHz
Frame rate : 46.875 FPS (1024 SPF)
Compression mode : Lossy
Stream size : 222 MiB (7%)
Default : Yes
Alternate group : 1

Dragon Gate

Complete name : 2021.08.09.Dragon.Gate.The.Gate.of.Adventure.Day.3.mp4
Format : MPEG-4
Format profile : Base Media
Codec ID : isom
File size : 3.03 GiB
Duration : 2 h 43 min
Overall bit rate mode : Variable
Overall bit rate : 2 651 kb/s

Dragon Gate

Video
ID : 1
Format : AVC
Format/Info : Advanced Video
Duration : 2 h 43 min
Bit rate mode : Variable
Bit rate : 2 455 kb/s
Maximum bit rate : 2 703 kb/s
Width : 1 280 pixels
Height : 720 pixels
Display aspect ratio : 16:9
Frame rate mode : Variable
Frame rate : 29.970 (29970/1000) FPS
Minimum frame rate : 0.166 FPS
Maximum frame rate : 33.333 FPS
Original frame rate : 30.000 FPS
Standard : NTSC
Color space : YUV
Chroma subsampling : 4:2:0
Bit depth : 8 bits
Scan type : Progressive
Bits/(Pixel*Frame) : 0.089
Stream size : 2.80 GiB (93%)
Color range : Limited
Color primaries : BT.709
Transfer characteristics : BT.709
Matrix coefficients : BT.709
Codec configuration box : avc

Dragon Gate

Audio
ID : 2
Format : AAC LC
Format/Info : Advanced Audio
Codec ID : mp4a-40-2
Duration : 2 h 43 min
Bit rate mode : Constant
Bit rate : 192 kb/s
Channel(s) : 2 channels
Channel layout : L R
Sampling rate : 48.0 kHz
Frame rate : 46.875 FPS (1024 SPF)
Compression mode : Lossy
Stream size : 222 MiB (7%)
Default : Yes
Alternate group : 1

Dragon Gate

Complete name : 2021.08.09.Dragon.Gate.The.Gate.of.Adventure.Day.3.mp4
Format : MPEG-4
Format profile : Base Media
Codec ID : isom
File size : 3.03 GiB
Duration : 2 h 43 min
Overall bit rate mode : Variable
Overall bit rate : 2 651 kb/s

Dragon Gate

Video
ID : 1
Format : AVC
Format/Info : Advanced Video
Duration : 2 h 43 min
Bit rate mode : Variable
Bit rate : 2 455 kb/s
Maximum bit rate : 2 703 kb/s
Width : 1 280 pixels
Height : 720 pixels
Display aspect ratio : 16:9
Frame rate mode : Variable
Frame rate : 29.970 (29970/1000) FPS
Minimum frame rate : 0.166 FPS
Maximum frame rate : 33.333 FPS
Original frame rate : 30.000 FPS
Standard : NTSC
Color space : YUV
Chroma subsampling : 4:2:0
Bit depth : 8 bits
Scan type : Progressive
Bits/(Pixel*Frame) : 0.089
Stream size : 2.80 GiB (93%)
Color range : Limited
Color primaries : BT.709
Transfer characteristics : BT.709
Matrix coefficients : BT.709
Codec configuration box : avc

Dragon Gate

Audio
ID : 2
Format : AAC LC
Format/Info : Advanced Audio
Codec ID : mp4a-40-2
Duration : 2 h 43 min
Bit rate mode : Constant
Bit rate : 192 kb/s
Channel(s) : 2 channels
Channel layout : L R
Sampling rate : 48.0 kHz
Frame rate : 46.875 FPS (1024 SPF)
Compression mode : Lossy
Stream size : 222 MiB (7%)
Default : Yes
Alternate group : 1

Dragon Gate

Complete name : 2021.08.09.Dragon.Gate.The.Gate.of.Adventure.Day.3.mp4
Format : MPEG-4
Format profile : Base Media
Codec ID : isom
File size : 3.03 GiB
Duration : 2 h 43 min
Overall bit rate mode : Variable
Overall bit rate : 2 651 kb/s

Dragon Gate

Video
ID : 1
Format : AVC
Format/Info : Advanced Video
Duration : 2 h 43 min
Bit rate mode : Variable
Bit rate : 2 455 kb/s
Maximum bit rate : 2 703 kb/s
Width : 1 280 pixels
Height : 720 pixels
Display aspect ratio : 16:9
Frame rate mode : Variable
Frame rate : 29.970 (29970/1000) FPS
Minimum frame rate : 0.166 FPS
Maximum frame rate : 33.333 FPS
Original frame rate : 30.000 FPS
Standard : NTSC
Color space : YUV
Chroma subsampling : 4:2:0
Bit depth : 8 bits
Scan type : Progressive
Bits/(Pixel*Frame) : 0.089
Stream size : 2.80 GiB (93%)
Color range : Limited
Color primaries : BT.709
Transfer characteristics : BT.709
Matrix coefficients : BT.709
Codec configuration box : avc

Dragon Gate

Audio
ID : 2
Format : AAC LC
Format/Info : Advanced Audio
Codec ID : mp4a-40-2
Duration : 2 h 43 min
Bit rate mode : Constant
Bit rate : 192 kb/s
Channel(s) : 2 channels
Channel layout : L R
Sampling rate : 48.0 kHz
Frame rate : 46.875 FPS (1024 SPF)
Compression mode : Lossy
Stream size : 222 MiB (7%)
Default : Yes
Alternate group : 1

Dragon Gate

Complete name : 2021.08.09.Dragon.Gate.The.Gate.of.Adventure.Day.3.mp4
Format : MPEG-4
Format profile : Base Media
Codec ID : isom
File size : 3.03 GiB
Duration : 2 h 43 min
Overall bit rate mode : Variable
Overall bit rate : 2 651 kb/s

Dragon Gate

Video
ID : 1
Format : AVC
Format/Info : Advanced Video
Duration : 2 h 43 min
Bit rate mode : Variable
Bit rate : 2 455 kb/s
Maximum bit rate : 2 703 kb/s
Width : 1 280 pixels
Height : 720 pixels
Display aspect ratio : 16:9
Frame rate mode : Variable
Frame rate : 29.970 (29970/1000) FPS
Minimum frame rate : 0.166 FPS
Maximum frame rate : 33.333 FPS
Original frame rate : 30.000 FPS
Standard : NTSC
Color space : YUV
Chroma subsampling : 4:2:0
Bit depth : 8 bits
Scan type : Progressive
Bits/(Pixel*Frame) : 0.089
Stream size : 2.80 GiB (93%)
Color range : Limited
Color primaries : BT.709
Transfer characteristics : BT.709
Matrix coefficients : BT.709
Codec configuration box : avc

Dragon Gate

Audio
ID : 2
Format : AAC LC
Format/Info : Advanced Audio
Codec ID : mp4a-40-2
Duration : 2 h 43 min
Bit rate mode : Constant
Bit rate : 192 kb/s
Channel(s) : 2 channels
Channel layout : L R
Sampling rate : 48.0 kHz
Frame rate : 46.875 FPS (1024 SPF)
Compression mode : Lossy
Stream size : 222 MiB (7%)
Default : Yes
Alternate group : 1

Dragon Gate

Complete name : 2021.08.09.Dragon.Gate.The.Gate.of.Adventure.Day.3.mp4
Format : MPEG-4
Format profile : Base Media
Codec ID : isom
File size : 3.03 GiB
Duration : 2 h 43 min
Overall bit rate mode : Variable
Overall bit rate : 2 651 kb/s

Dragon Gate

Video
ID : 1
Format : AVC
Format/Info : Advanced Video
Duration : 2 h 43 min
Bit rate mode : Variable
Bit rate : 2 455 kb/s
Maximum bit rate : 2 703 kb/s
Width : 1 280 pixels
Height : 720 pixels
Display aspect ratio : 16:9
Frame rate mode : Variable
Frame rate : 29.970 (29970/1000) FPS
Minimum frame rate : 0.166 FPS
Maximum frame rate : 33.333 FPS
Original frame rate : 30.000 FPS
Standard : NTSC
Color space : YUV
Chroma subsampling : 4:2:0
Bit depth : 8 bits
Scan type : Progressive
Bits/(Pixel*Frame) : 0.089
Stream size : 2.80 GiB (93%)
Color range : Limited
Color primaries : BT.709
Transfer characteristics : BT.709
Matrix coefficients : BT.709
Codec configuration box : avc

Dragon Gate

Audio
ID : 2
Format : AAC LC
Format/Info : Advanced Audio
Codec ID : mp4a-40-2
Duration : 2 h 43 min
Bit rate mode : Constant
Bit rate : 192 kb/s
Channel(s) : 2 channels
Channel layout : L R
Sampling rate : 48.0 kHz
Frame rate : 46.875 FPS (1024 SPF)
Compression mode : Lossy
Stream size : 222 MiB (7%)
Default : Yes
Alternate group : 1

Dragon Gate

Complete name : 2021.08.09.Dragon.Gate.The.Gate.of.Adventure.Day.3.mp4
Format : MPEG-4
Format profile : Base Media
Codec ID : isom
File size : 3.03 GiB
Duration : 2 h 43 min
Overall bit rate mode : Variable
Overall bit rate : 2 651 kb/s

Dragon Gate

Video
ID : 1
Format : AVC
Format/Info : Advanced Video
Duration : 2 h 43 min
Bit rate mode : Variable
Bit rate : 2 455 kb/s
Maximum bit rate : 2 703 kb/s
Width : 1 280 pixels
Height : 720 pixels
Display aspect ratio : 16:9
Frame rate mode : Variable
Frame rate : 29.970 (29970/1000) FPS
Minimum frame rate : 0.166 FPS
Maximum frame rate : 33.333 FPS
Original frame rate : 30.000 FPS
Standard : NTSC
Color space : YUV
Chroma subsampling : 4:2:0
Bit depth : 8 bits
Scan type : Progressive
Bits/(Pixel*Frame) : 0.089
Stream size : 2.80 GiB (93%)
Color range : Limited
Color primaries : BT.709
Transfer characteristics : BT.709
Matrix coefficients : BT.709
Codec configuration box : avc

Dragon Gate

Audio
ID : 2
Format : AAC LC
Format/Info : Advanced Audio
Codec ID : mp4a-40-2
Duration : 2 h 43 min
Bit rate mode : Constant
Bit rate : 192 kb/s
Channel(s) : 2 channels
Channel layout : L R
Sampling rate : 48.0 kHz
Frame rate : 46.875 FPS (1024 SPF)
Compression mode : Lossy
Stream size : 222 MiB (7%)
Default : Yes
Alternate group : 1

Dragon Gate

Complete name : 2021.08.09.Dragon.Gate.The.Gate.of.Adventure.Day.3.mp4
Format : MPEG-4
Format profile : Base Media
Codec ID : isom
File size : 3.03 GiB
Duration : 2 h 43 min
Overall bit rate mode : Variable
Overall bit rate : 2 651 kb/s

Dragon Gate

Video
ID : 1
Format : AVC
Format/Info : Advanced Video
Duration : 2 h 43 min
Bit rate mode : Variable
Bit rate : 2 455 kb/s
Maximum bit rate : 2 703 kb/s
Width : 1 280 pixels
Height : 720 pixels
Display aspect ratio : 16:9
Frame rate mode : Variable
Frame rate : 29.970 (29970/1000) FPS
Minimum frame rate : 0.166 FPS
Maximum frame rate : 33.333 FPS
Original frame rate : 30.000 FPS
Standard : NTSC
Color space : YUV
Chroma subsampling : 4:2:0
Bit depth : 8 bits
Scan type : Progressive
Bits/(Pixel*Frame) : 0.089
Stream size : 2.80 GiB (93%)
Color range : Limited
Color primaries : BT.709
Transfer characteristics : BT.709
Matrix coefficients : BT.709
Codec configuration box : avc

Dragon Gate

Audio
ID : 2
Format : AAC LC
Format/Info : Advanced Audio
Codec ID : mp4a-40-2
Duration : 2 h 43 min
Bit rate mode : Constant
Bit rate : 192 kb/s
Channel(s) : 2 channels
Channel layout : L R
Sampling rate : 48.0 kHz
Frame rate : 46.875 FPS (1024 SPF)
Compression mode : Lossy
Stream size : 222 MiB (7%)
Default : Yes
Alternate group : 1

Dragon Gate

Complete name : 2021.08.09.Dragon.Gate.The.Gate.of.Adventure.Day.3.mp4
Format : MPEG-4
Format profile : Base Media
Codec ID : isom
File size : 3.03 GiB
Duration : 2 h 43 min
Overall bit rate mode : Variable
Overall bit rate : 2 651 kb/s

Dragon Gate

Video
ID : 1
Format : AVC
Format/Info : Advanced Video
Duration : 2 h 43 min
Bit rate mode : Variable
Bit rate : 2 455 kb/s
Maximum bit rate : 2 703 kb/s
Width : 1 280 pixels
Height : 720 pixels
Display aspect ratio : 16:9
Frame rate mode : Variable
Frame rate : 29.970 (29970/1000) FPS
Minimum frame rate : 0.166 FPS
Maximum frame rate : 33.333 FPS
Original frame rate : 30.000 FPS
Standard : NTSC
Color space : YUV
Chroma subsampling : 4:2:0
Bit depth : 8 bits
Scan type : Progressive
Bits/(Pixel*Frame) : 0.089
Stream size : 2.80 GiB (93%)
Color range : Limited
Color primaries : BT.709
Transfer characteristics : BT.709
Matrix coefficients : BT.709
Codec configuration box : avc

Dragon Gate

Audio
ID : 2
Format : AAC LC
Format/Info : Advanced Audio
Codec ID : mp4a-40-2
Duration : 2 h 43 min
Bit rate mode : Constant
Bit rate : 192 kb/s
Channel(s) : 2 channels
Channel layout : L R
Sampling rate : 48.0 kHz
Frame rate : 46.875 FPS (1024 SPF)
Compression mode : Lossy
Stream size : 222 MiB (7%)
Default : Yes
Alternate group : 1

Dragon Gate

Complete name : 2021.08.09.Dragon.Gate.The.Gate.of.Adventure.Day.3.mp4
Format : MPEG-4
Format profile : Base Media
Codec ID : isom
File size : 3.03 GiB
Duration : 2 h 43 min
Overall bit rate mode : Variable
Overall bit rate : 2 651 kb/s

Dragon Gate

Video
ID : 1
Format : AVC
Format/Info : Advanced Video
Duration : 2 h 43 min
Bit rate mode : Variable
Bit rate : 2 455 kb/s
Maximum bit rate : 2 703 kb/s
Width : 1 280 pixels
Height : 720 pixels
Display aspect ratio : 16:9
Frame rate mode : Variable
Frame rate : 29.970 (29970/1000) FPS
Minimum frame rate : 0.166 FPS
Maximum frame rate : 33.333 FPS
Original frame rate : 30.000 FPS
Standard : NTSC
Color space : YUV
Chroma subsampling : 4:2:0
Bit depth : 8 bits
Scan type : Progressive
Bits/(Pixel*Frame) : 0.089
Stream size : 2.80 GiB (93%)
Color range : Limited
Color primaries : BT.709
Transfer characteristics : BT.709
Matrix coefficients : BT.709
Codec configuration box : avc

Dragon Gate

Audio
ID : 2
Format : AAC LC
Format/Info : Advanced Audio
Codec ID : mp4a-40-2
Duration : 2 h 43 min
Bit rate mode : Constant
Bit rate : 192 kb/s
Channel(s) : 2 channels
Channel layout : L R
Sampling rate : 48.0 kHz
Frame rate : 46.875 FPS (1024 SPF)
Compression mode : Lossy
Stream size : 222 MiB (7%)
Default : Yes
Alternate group : 1

Dragon Gate

Complete name : 2021.08.09.Dragon.Gate.The.Gate.of.Adventure.Day.3.mp4
Format : MPEG-4
Format profile : Base Media
Codec ID : isom
File size : 3.03 GiB
Duration : 2 h 43 min
Overall bit rate mode : Variable
Overall bit rate : 2 651 kb/s

Dragon Gate

Video
ID : 1
Format : AVC
Format/Info : Advanced Video
Duration : 2 h 43 min
Bit rate mode : Variable
Bit rate : 2 455 kb/s
Maximum bit rate : 2 703 kb/s
Width : 1 280 pixels
Height : 720 pixels
Display aspect ratio : 16:9
Frame rate mode : Variable
Frame rate : 29.970 (29970/1000) FPS
Minimum frame rate : 0.166 FPS
Maximum frame rate : 33.333 FPS
Original frame rate : 30.000 FPS
Standard : NTSC
Color space : YUV
Chroma subsampling : 4:2:0
Bit depth : 8 bits
Scan type : Progressive
Bits/(Pixel*Frame) : 0.089
Stream size : 2.80 GiB (93%)
Color range : Limited
Color primaries : BT.709
Transfer characteristics : BT.709
Matrix coefficients : BT.709
Codec configuration box : avc

Dragon Gate

Audio
ID : 2
Format : AAC LC
Format/Info : Advanced Audio
Codec ID : mp4a-40-2
Duration : 2 h 43 min
Bit rate mode : Constant
Bit rate : 192 kb/s
Channel(s) : 2 channels
Channel layout : L R
Sampling rate : 48.0 kHz
Frame rate : 46.875 FPS (1024 SPF)
Compression mode : Lossy
Stream size : 222 MiB (7%)
Default : Yes
Alternate group : 1

Dragon Gate

Complete name : 2021.08.09.Dragon.Gate.The.Gate.of.Adventure.Day.3.mp4
Format : MPEG-4
Format profile : Base Media
Codec ID : isom
File size : 3.03 GiB
Duration : 2 h 43 min
Overall bit rate mode : Variable
Overall bit rate : 2 651 kb/s

Dragon Gate

Video
ID : 1
Format : AVC
Format/Info : Advanced Video
Duration : 2 h 43 min
Bit rate mode : Variable
Bit rate : 2 455 kb/s
Maximum bit rate : 2 703 kb/s
Width : 1 280 pixels
Height : 720 pixels
Display aspect ratio : 16:9
Frame rate mode : Variable
Frame rate : 29.970 (29970/1000) FPS
Minimum frame rate : 0.166 FPS
Maximum frame rate : 33.333 FPS
Original frame rate : 30.000 FPS
Standard : NTSC
Color space : YUV
Chroma subsampling : 4:2:0
Bit depth : 8 bits
Scan type : Progressive
Bits/(Pixel*Frame) : 0.089
Stream size : 2.80 GiB (93%)
Color range : Limited
Color primaries : BT.709
Transfer characteristics : BT.709
Matrix coefficients : BT.709
Codec configuration box : avc

Dragon Gate

Audio
ID : 2
Format : AAC LC
Format/Info : Advanced Audio
Codec ID : mp4a-40-2
Duration : 2 h 43 min
Bit rate mode : Constant
Bit rate : 192 kb/s
Channel(s) : 2 channels
Channel layout : L R
Sampling rate : 48.0 kHz
Frame rate : 46.875 FPS (1024 SPF)
Compression mode : Lossy
Stream size : 222 MiB (7%)
Default : Yes
Alternate group : 1

Dragon Gate

Complete name : 2021.08.09.Dragon.Gate.The.Gate.of.Adventure.Day.3.mp4
Format : MPEG-4
Format profile : Base Media
Codec ID : isom
File size : 3.03 GiB
Duration : 2 h 43 min
Overall bit rate mode : Variable
Overall bit rate : 2 651 kb/s

Dragon Gate

Video
ID : 1
Format : AVC
Format/Info : Advanced Video
Duration : 2 h 43 min
Bit rate mode : Variable
Bit rate : 2 455 kb/s
Maximum bit rate : 2 703 kb/s
Width : 1 280 pixels
Height : 720 pixels
Display aspect ratio : 16:9
Frame rate mode : Variable
Frame rate : 29.970 (29970/1000) FPS
Minimum frame rate : 0.166 FPS
Maximum frame rate : 33.333 FPS
Original frame rate : 30.000 FPS
Standard : NTSC
Color space : YUV
Chroma subsampling : 4:2:0
Bit depth : 8 bits
Scan type : Progressive
Bits/(Pixel*Frame) : 0.089
Stream size : 2.80 GiB (93%)
Color range : Limited
Color primaries : BT.709
Transfer characteristics : BT.709
Matrix coefficients : BT.709
Codec configuration box : avc

Dragon Gate

Audio
ID : 2
Format : AAC LC
Format/Info : Advanced Audio
Codec ID : mp4a-40-2
Duration : 2 h 43 min
Bit rate mode : Constant
Bit rate : 192 kb/s
Channel(s) : 2 channels
Channel layout : L R
Sampling rate : 48.0 kHz
Frame rate : 46.875 FPS (1024 SPF)
Compression mode : Lossy
Stream size : 222 MiB (7%)
Default : Yes
Alternate group : 1

Dragon Gate

 

[collapse]

 

 

https://dx-tv.com/

You May Also Like

Leave a Reply

Your email address will not be published. Required fields are marked *

This site uses Akismet to reduce spam. Learn how your comment data is processed.