Dragon Gate Speedstar Final Countdown 2021 04 24

Dragon Gate Speedstar Final Countdown in Higashiosaka 2021 04 24 DX-TV

Dragon Gate Speedstar Final

 Dragon Gate Speedstar Final

 

 

 

Download Links with High Speed


 

Dopapk

 

 

Show Links

 

http://shrt10.com/e5y5DC18t

 

[collapse]

 

 

Nitroflare

 

 

Show Links

 

http://shrt10.com/fZUGA

 

[collapse]

 

 

Rapidgator

 

 

Show Links

 

http://shrt10.com/qScff9

 

[collapse]

 

 

Uploaded

 

 

Show Links

 

http://shrt10.com/OzJYQYm

 

[collapse]

 

 

Watch online

 

Server 1

 

 

 

 

Dragon Gate Speedstar Final

 

 

 

 

Server-2

 

 

 

 

watch now

 

 

 

|Server-3

 

 

 

 

watch now

 

 

Uploaded By Site DX-TV.com

 

 

Show Info This Show

 

 

Complete name : 2021.04.24.Dragon.Gate.SPEEDSTAR.Final.Countdown.in.Higashiosaka.mp4
Format : MPEG-4
Format profile : Base Media
Codec ID : isom
File size : 4.11 GiB
Duration : 3 h 37 min
Overall bit rate mode : Variable
Overall bit rate : 2 708 kb/s

Dragon Gate Speedstar Final

Video
ID : 1
Format : AVC
Duration : 3 h 37 min
Bit rate mode : Variable
Bit rate : 2 508 kb/s
Maximum bit rate : 2 703 kb/s
Width : 1 280 pixels
Height : 720 pixels
Display aspect ratio : 16:9
Frame rate mode : Variable
Frame rate : 29.970 FPS
Minimum frame rate : 20.000 FPS
Maximum frame rate : 32.258 FPS
Original frame rate : 30.000 FPS
Standard : NTSC
Color space : YUV
Chroma subsampling : 4:2:0
Bit depth : 8 bits
Scan type : Progressive
Bits/(Pixel*Frame) : 0.091
Stream size : 3.81 GiB (93%)
Color range : Limited
Color primaries : BT.709
Transfer characteristics : BT.709
Matrix coefficients : BT.709
Codec configuration box : avcC

Audio
ID : 2
Format : AAC LC
Format/Info : Advanced Audio
Codec ID : mp4a-40-2
Duration : 3 h 37 min
Bit rate mode : Constant
Bit rate : 192 kb/s
Channel(s) : 2 channels
Channel layout : L R
Sampling rate : 48.0 kHz
Frame rate : 46.875 FPS
Compression mode : Lossy
Stream size : 295 MiB
Default : Yes
Alternate group : 1

Dragon Gate Speedstar

Audio
ID : 2
Format : AAC LC
Format/Info : Advanced Audio
Codec ID : mp4a-40-2
Duration : 3 h 37 min
Bit rate mode : Constant
Bit rate : 192 kb/s
Channel(s) : 2 channels
Channel layout : L R
Sampling rate : 48.0 kHz
Frame rate : 46.875 FPS
Compression mode : Lossy
Stream size : 295 MiB
Default : Yes
Alternate group : 1

Audio
ID : 2
Format : AAC LC
Format/Info : Advanced Audio
Codec ID : mp4a-40-2
Duration : 3 h 37 min
Bit rate mode : Constant
Bit rate : 192 kb/s
Channel(s) : 2 channels
Channel layout : L R
Sampling rate : 48.0 kHz
Frame rate : 46.875 FPS
Compression mode : Lossy
Stream size : 295 MiB
Default : Yes
Alternate group : 1

Dragon Gate Speedstar

Audio
ID : 2
Format : AAC LC
Format/Info : Advanced Audio
Codec ID : mp4a-40-2
Duration : 3 h 37 min
Bit rate mode : Constant
Bit rate : 192 kb/s
Channel(s) : 2 channels
Channel layout : L R
Sampling rate : 48.0 kHz
Frame rate : 46.875 FPS
Compression mode : Lossy
Stream size : 295 MiB
Default : Yes
Alternate group : 1

Dragon Gate Speedstar

[collapse]

 

 

https://dx-tv.com/