Dragon Gate Online Free 2021 06 26 Rainbow Gate Day Replay DX-TV

Dragon Gate Online Free

 Dragon Gate Online Free

 

 

 

Download Links with premium High Speed


Dopapk

 

 

Show Links

 

http://shrt10.com/GPzvb

 

[collapse]

 

 

Nitroflare

 

 

Show Links

 

http://shrt10.com/ULELrQY

 

[collapse]

 

 

Rapidgator

 

 

Show Links

 

http://shrt10.com/skHj0ELYz

 

[collapse]

 

 

Uploaded

 

 

Show Links

 

http://shrt10.com/6juui34

 

[collapse]

 

 

Watch online

 

Server 1

 

 

 

 

watch now

 

 

 

 

Server-2

 

 

 

 

watch now

 

 

 

|Server-4

 

 

 

 

watch now

 

 

Uploaded By Site DX-TV.com

 

 

Show Info This Show

 

Dragon Gate Online

Complete name : 2021.06.26.Dragon.Gate.Rainbow.Gate.Day.8.mp4
Format : MPEG-4
Format profile : Base Media
Codec ID : isom
File size : 3.34 GiB
Duration : 2 h 59 min
Overall bit rate mode : Variable
Overall bit rate : 2 658 kb/s

Video
ID : 1
Format : AVC
Format/Info : Advanced Video
Duration : 2 h 59 min
Bit rate mode : Variable
Bit rate : 2 461 kb/s
Maximum bit rate : 2 703 kb/s
Width : 1 280 pixels
Height : 720 pixels
Display aspect ratio : 16:9
Frame rate mode : Variable
Frame rate : 29.970 (29970/1000) FPS
Minimum frame rate : 20.000 FPS
Maximum frame rate : 33.333 FPS
Original frame rate : 30.000 FPS
Standard : NTSC
Color space : YUV
Chroma subsampling : 4:2:0
Bit depth : 8 bits
Scan type : Progressive
Bits/(Pixel*Frame) : 0.089
Stream size : 3.09 GiB (93%)
Color range : Limited
Color primaries : BT.709
Transfer characteristics : BT.709
Matrix coefficients : BT.709
Codec configuration box : avcC

Dragon Gate Online

Audio
ID : 2
Format : AAC LC
Format/Info : Advanced Audio
Codec ID : mp4a-40-2
Duration : 2 h 59 min
Bit rate mode : Constant
Bit rate : 192 kb/s
Channel(s) : 2 channels
Channel layout : L R
Sampling rate : 48.0 kHz
Frame rate : 46.875 FPS (1024 SPF)
Compression mode : Lossy
Stream size : 244 MiB (7%)
Default : Yes
Alternate group : 1

Dragon Gate Online

Complete name : 2021.06.26.Dragon.Gate.Rainbow.Gate.Day.8.mp4
Format : MPEG-4
Format profile : Base Media
Codec ID : isom
File size : 3.34 GiB
Duration : 2 h 59 min
Overall bit rate mode : Variable
Overall bit rate : 2 658 kb/s

Video
ID : 1
Format : AVC
Format/Info : Advanced Video
Duration : 2 h 59 min
Bit rate mode : Variable
Bit rate : 2 461 kb/s
Maximum bit rate : 2 703 kb/s
Width : 1 280 pixels
Height : 720 pixels
Display aspect ratio : 16:9
Frame rate mode : Variable
Frame rate : 29.970 (29970/1000) FPS
Minimum frame rate : 20.000 FPS
Maximum frame rate : 33.333 FPS
Original frame rate : 30.000 FPS
Standard : NTSC
Color space : YUV
Chroma subsampling : 4:2:0
Bit depth : 8 bits
Scan type : Progressive
Bits/(Pixel*Frame) : 0.089
Stream size : 3.09 GiB (93%)
Color range : Limited
Color primaries : BT.709
Transfer characteristics : BT.709
Matrix coefficients : BT.709
Codec configuration box : avcC

Dragon Gate Online

Audio
ID : 2
Format : AAC LC
Format/Info : Advanced Audio
Codec ID : mp4a-40-2
Duration : 2 h 59 min
Bit rate mode : Constant
Bit rate : 192 kb/s
Channel(s) : 2 channels
Channel layout : L R
Sampling rate : 48.0 kHz
Frame rate : 46.875 FPS (1024 SPF)
Compression mode : Lossy
Stream size : 244 MiB (7%)
Default : Yes
Alternate group : 1

Dragon Gate Online

Complete name : 2021.06.26.Dragon.Gate.Rainbow.Gate.Day.8.mp4
Format : MPEG-4
Format profile : Base Media
Codec ID : isom
File size : 3.34 GiB
Duration : 2 h 59 min
Overall bit rate mode : Variable
Overall bit rate : 2 658 kb/s

Video
ID : 1
Format : AVC
Format/Info : Advanced Video
Duration : 2 h 59 min
Bit rate mode : Variable
Bit rate : 2 461 kb/s
Maximum bit rate : 2 703 kb/s
Width : 1 280 pixels
Height : 720 pixels
Display aspect ratio : 16:9
Frame rate mode : Variable
Frame rate : 29.970 (29970/1000) FPS
Minimum frame rate : 20.000 FPS
Maximum frame rate : 33.333 FPS
Original frame rate : 30.000 FPS
Standard : NTSC
Color space : YUV
Chroma subsampling : 4:2:0
Bit depth : 8 bits
Scan type : Progressive
Bits/(Pixel*Frame) : 0.089
Stream size : 3.09 GiB (93%)
Color range : Limited
Color primaries : BT.709
Transfer characteristics : BT.709
Matrix coefficients : BT.709
Codec configuration box : avcC

Dragon Gate Online

Audio
ID : 2
Format : AAC LC
Format/Info : Advanced Audio
Codec ID : mp4a-40-2
Duration : 2 h 59 min
Bit rate mode : Constant
Bit rate : 192 kb/s
Channel(s) : 2 channels
Channel layout : L R
Sampling rate : 48.0 kHz
Frame rate : 46.875 FPS (1024 SPF)
Compression mode : Lossy
Stream size : 244 MiB (7%)
Default : Yes
Alternate group : 1

Dragon Gate Online

Complete name : 2021.06.26.Dragon.Gate.Rainbow.Gate.Day.8.mp4
Format : MPEG-4
Format profile : Base Media
Codec ID : isom
File size : 3.34 GiB
Duration : 2 h 59 min
Overall bit rate mode : Variable
Overall bit rate : 2 658 kb/s

Video
ID : 1
Format : AVC
Format/Info : Advanced Video
Duration : 2 h 59 min
Bit rate mode : Variable
Bit rate : 2 461 kb/s
Maximum bit rate : 2 703 kb/s
Width : 1 280 pixels
Height : 720 pixels
Display aspect ratio : 16:9
Frame rate mode : Variable
Frame rate : 29.970 (29970/1000) FPS
Minimum frame rate : 20.000 FPS
Maximum frame rate : 33.333 FPS
Original frame rate : 30.000 FPS
Standard : NTSC
Color space : YUV
Chroma subsampling : 4:2:0
Bit depth : 8 bits
Scan type : Progressive
Bits/(Pixel*Frame) : 0.089
Stream size : 3.09 GiB (93%)
Color range : Limited
Color primaries : BT.709
Transfer characteristics : BT.709
Matrix coefficients : BT.709
Codec configuration box : avcC

Dragon Gate Online

Audio
ID : 2
Format : AAC LC
Format/Info : Advanced Audio
Codec ID : mp4a-40-2
Duration : 2 h 59 min
Bit rate mode : Constant
Bit rate : 192 kb/s
Channel(s) : 2 channels
Channel layout : L R
Sampling rate : 48.0 kHz
Frame rate : 46.875 FPS (1024 SPF)
Compression mode : Lossy
Stream size : 244 MiB (7%)
Default : Yes
Alternate group : 1

Dragon Gate Online

Complete name : 2021.06.26.Dragon.Gate.Rainbow.Gate.Day.8.mp4
Format : MPEG-4
Format profile : Base Media
Codec ID : isom
File size : 3.34 GiB
Duration : 2 h 59 min
Overall bit rate mode : Variable
Overall bit rate : 2 658 kb/s

Video
ID : 1
Format : AVC
Format/Info : Advanced Video
Duration : 2 h 59 min
Bit rate mode : Variable
Bit rate : 2 461 kb/s
Maximum bit rate : 2 703 kb/s
Width : 1 280 pixels
Height : 720 pixels
Display aspect ratio : 16:9
Frame rate mode : Variable
Frame rate : 29.970 (29970/1000) FPS
Minimum frame rate : 20.000 FPS
Maximum frame rate : 33.333 FPS
Original frame rate : 30.000 FPS
Standard : NTSC
Color space : YUV
Chroma subsampling : 4:2:0
Bit depth : 8 bits
Scan type : Progressive
Bits/(Pixel*Frame) : 0.089
Stream size : 3.09 GiB (93%)
Color range : Limited
Color primaries : BT.709
Transfer characteristics : BT.709
Matrix coefficients : BT.709
Codec configuration box : avcC

Dragon Gate Online

Audio
ID : 2
Format : AAC LC
Format/Info : Advanced Audio
Codec ID : mp4a-40-2
Duration : 2 h 59 min
Bit rate mode : Constant
Bit rate : 192 kb/s
Channel(s) : 2 channels
Channel layout : L R
Sampling rate : 48.0 kHz
Frame rate : 46.875 FPS (1024 SPF)
Compression mode : Lossy
Stream size : 244 MiB (7%)
Default : Yes
Alternate group : 1

Dragon Gate Online

Complete name : 2021.06.26.Dragon.Gate.Rainbow.Gate.Day.8.mp4
Format : MPEG-4
Format profile : Base Media
Codec ID : isom
File size : 3.34 GiB
Duration : 2 h 59 min
Overall bit rate mode : Variable
Overall bit rate : 2 658 kb/s

Video
ID : 1
Format : AVC
Format/Info : Advanced Video
Duration : 2 h 59 min
Bit rate mode : Variable
Bit rate : 2 461 kb/s
Maximum bit rate : 2 703 kb/s
Width : 1 280 pixels
Height : 720 pixels
Display aspect ratio : 16:9
Frame rate mode : Variable
Frame rate : 29.970 (29970/1000) FPS
Minimum frame rate : 20.000 FPS
Maximum frame rate : 33.333 FPS
Original frame rate : 30.000 FPS
Standard : NTSC
Color space : YUV
Chroma subsampling : 4:2:0
Bit depth : 8 bits
Scan type : Progressive
Bits/(Pixel*Frame) : 0.089
Stream size : 3.09 GiB (93%)
Color range : Limited
Color primaries : BT.709
Transfer characteristics : BT.709
Matrix coefficients : BT.709
Codec configuration box : avcC

Dragon Gate Online

Audio
ID : 2
Format : AAC LC
Format/Info : Advanced Audio
Codec ID : mp4a-40-2
Duration : 2 h 59 min
Bit rate mode : Constant
Bit rate : 192 kb/s
Channel(s) : 2 channels
Channel layout : L R
Sampling rate : 48.0 kHz
Frame rate : 46.875 FPS (1024 SPF)
Compression mode : Lossy
Stream size : 244 MiB (7%)
Default : Yes
Alternate group : 1

Dragon Gate Online

Complete name : 2021.06.26.Dragon.Gate.Rainbow.Gate.Day.8.mp4
Format : MPEG-4
Format profile : Base Media
Codec ID : isom
File size : 3.34 GiB
Duration : 2 h 59 min
Overall bit rate mode : Variable
Overall bit rate : 2 658 kb/s

Video
ID : 1
Format : AVC
Format/Info : Advanced Video
Duration : 2 h 59 min
Bit rate mode : Variable
Bit rate : 2 461 kb/s
Maximum bit rate : 2 703 kb/s
Width : 1 280 pixels
Height : 720 pixels
Display aspect ratio : 16:9
Frame rate mode : Variable
Frame rate : 29.970 (29970/1000) FPS
Minimum frame rate : 20.000 FPS
Maximum frame rate : 33.333 FPS
Original frame rate : 30.000 FPS
Standard : NTSC
Color space : YUV
Chroma subsampling : 4:2:0
Bit depth : 8 bits
Scan type : Progressive
Bits/(Pixel*Frame) : 0.089
Stream size : 3.09 GiB (93%)
Color range : Limited
Color primaries : BT.709
Transfer characteristics : BT.709
Matrix coefficients : BT.709
Codec configuration box : avcC

Dragon Gate Online

Audio
ID : 2
Format : AAC LC
Format/Info : Advanced Audio
Codec ID : mp4a-40-2
Duration : 2 h 59 min
Bit rate mode : Constant
Bit rate : 192 kb/s
Channel(s) : 2 channels
Channel layout : L R
Sampling rate : 48.0 kHz
Frame rate : 46.875 FPS (1024 SPF)
Compression mode : Lossy
Stream size : 244 MiB (7%)
Default : Yes
Alternate group : 1

Dragon Gate Online

Complete name : 2021.06.26.Dragon.Gate.Rainbow.Gate.Day.8.mp4
Format : MPEG-4
Format profile : Base Media
Codec ID : isom
File size : 3.34 GiB
Duration : 2 h 59 min
Overall bit rate mode : Variable
Overall bit rate : 2 658 kb/s

Video
ID : 1
Format : AVC
Format/Info : Advanced Video
Duration : 2 h 59 min
Bit rate mode : Variable
Bit rate : 2 461 kb/s
Maximum bit rate : 2 703 kb/s
Width : 1 280 pixels
Height : 720 pixels
Display aspect ratio : 16:9
Frame rate mode : Variable
Frame rate : 29.970 (29970/1000) FPS
Minimum frame rate : 20.000 FPS
Maximum frame rate : 33.333 FPS
Original frame rate : 30.000 FPS
Standard : NTSC
Color space : YUV
Chroma subsampling : 4:2:0
Bit depth : 8 bits
Scan type : Progressive
Bits/(Pixel*Frame) : 0.089
Stream size : 3.09 GiB (93%)
Color range : Limited
Color primaries : BT.709
Transfer characteristics : BT.709
Matrix coefficients : BT.709
Codec configuration box : avcC

Dragon Gate Online

Audio
ID : 2
Format : AAC LC
Format/Info : Advanced Audio
Codec ID : mp4a-40-2
Duration : 2 h 59 min
Bit rate mode : Constant
Bit rate : 192 kb/s
Channel(s) : 2 channels
Channel layout : L R
Sampling rate : 48.0 kHz
Frame rate : 46.875 FPS (1024 SPF)
Compression mode : Lossy
Stream size : 244 MiB (7%)
Default : Yes
Alternate group : 1

Dragon Gate Online

Complete name : 2021.06.26.Dragon.Gate.Rainbow.Gate.Day.8.mp4
Format : MPEG-4
Format profile : Base Media
Codec ID : isom
File size : 3.34 GiB
Duration : 2 h 59 min
Overall bit rate mode : Variable
Overall bit rate : 2 658 kb/s

Video
ID : 1
Format : AVC
Format/Info : Advanced Video
Duration : 2 h 59 min
Bit rate mode : Variable
Bit rate : 2 461 kb/s
Maximum bit rate : 2 703 kb/s
Width : 1 280 pixels
Height : 720 pixels
Display aspect ratio : 16:9
Frame rate mode : Variable
Frame rate : 29.970 (29970/1000) FPS
Minimum frame rate : 20.000 FPS
Maximum frame rate : 33.333 FPS
Original frame rate : 30.000 FPS
Standard : NTSC
Color space : YUV
Chroma subsampling : 4:2:0
Bit depth : 8 bits
Scan type : Progressive
Bits/(Pixel*Frame) : 0.089
Stream size : 3.09 GiB (93%)
Color range : Limited
Color primaries : BT.709
Transfer characteristics : BT.709
Matrix coefficients : BT.709
Codec configuration box : avcC

Dragon Gate Online

Audio
ID : 2
Format : AAC LC
Format/Info : Advanced Audio
Codec ID : mp4a-40-2
Duration : 2 h 59 min
Bit rate mode : Constant
Bit rate : 192 kb/s
Channel(s) : 2 channels
Channel layout : L R
Sampling rate : 48.0 kHz
Frame rate : 46.875 FPS (1024 SPF)
Compression mode : Lossy
Stream size : 244 MiB (7%)
Default : Yes
Alternate group : 1

Dragon Gate Online

Complete name : 2021.06.26.Dragon.Gate.Rainbow.Gate.Day.8.mp4
Format : MPEG-4
Format profile : Base Media
Codec ID : isom
File size : 3.34 GiB
Duration : 2 h 59 min
Overall bit rate mode : Variable
Overall bit rate : 2 658 kb/s

Video
ID : 1
Format : AVC
Format/Info : Advanced Video
Duration : 2 h 59 min
Bit rate mode : Variable
Bit rate : 2 461 kb/s
Maximum bit rate : 2 703 kb/s
Width : 1 280 pixels
Height : 720 pixels
Display aspect ratio : 16:9
Frame rate mode : Variable
Frame rate : 29.970 (29970/1000) FPS
Minimum frame rate : 20.000 FPS
Maximum frame rate : 33.333 FPS
Original frame rate : 30.000 FPS
Standard : NTSC
Color space : YUV
Chroma subsampling : 4:2:0
Bit depth : 8 bits
Scan type : Progressive
Bits/(Pixel*Frame) : 0.089
Stream size : 3.09 GiB (93%)
Color range : Limited
Color primaries : BT.709
Transfer characteristics : BT.709
Matrix coefficients : BT.709
Codec configuration box : avcC

Dragon Gate Online

Audio
ID : 2
Format : AAC LC
Format/Info : Advanced Audio
Codec ID : mp4a-40-2
Duration : 2 h 59 min
Bit rate mode : Constant
Bit rate : 192 kb/s
Channel(s) : 2 channels
Channel layout : L R
Sampling rate : 48.0 kHz
Frame rate : 46.875 FPS (1024 SPF)
Compression mode : Lossy
Stream size : 244 MiB (7%)
Default : Yes
Alternate group : 1

Dragon Gate Online

Complete name : 2021.06.26.Dragon.Gate.Rainbow.Gate.Day.8.mp4
Format : MPEG-4
Format profile : Base Media
Codec ID : isom
File size : 3.34 GiB
Duration : 2 h 59 min
Overall bit rate mode : Variable
Overall bit rate : 2 658 kb/s

Video
ID : 1
Format : AVC
Format/Info : Advanced Video
Duration : 2 h 59 min
Bit rate mode : Variable
Bit rate : 2 461 kb/s
Maximum bit rate : 2 703 kb/s
Width : 1 280 pixels
Height : 720 pixels
Display aspect ratio : 16:9
Frame rate mode : Variable
Frame rate : 29.970 (29970/1000) FPS
Minimum frame rate : 20.000 FPS
Maximum frame rate : 33.333 FPS
Original frame rate : 30.000 FPS
Standard : NTSC
Color space : YUV
Chroma subsampling : 4:2:0
Bit depth : 8 bits
Scan type : Progressive
Bits/(Pixel*Frame) : 0.089
Stream size : 3.09 GiB (93%)
Color range : Limited
Color primaries : BT.709
Transfer characteristics : BT.709
Matrix coefficients : BT.709
Codec configuration box : avcC

Dragon Gate Online

Audio
ID : 2
Format : AAC LC
Format/Info : Advanced Audio
Codec ID : mp4a-40-2
Duration : 2 h 59 min
Bit rate mode : Constant
Bit rate : 192 kb/s
Channel(s) : 2 channels
Channel layout : L R
Sampling rate : 48.0 kHz
Frame rate : 46.875 FPS (1024 SPF)
Compression mode : Lossy
Stream size : 244 MiB (7%)
Default : Yes
Alternate group : 1

Dragon Gate Online

Complete name : 2021.06.26.Dragon.Gate.Rainbow.Gate.Day.8.mp4
Format : MPEG-4
Format profile : Base Media
Codec ID : isom
File size : 3.34 GiB
Duration : 2 h 59 min
Overall bit rate mode : Variable
Overall bit rate : 2 658 kb/s

Video
ID : 1
Format : AVC
Format/Info : Advanced Video
Duration : 2 h 59 min
Bit rate mode : Variable
Bit rate : 2 461 kb/s
Maximum bit rate : 2 703 kb/s
Width : 1 280 pixels
Height : 720 pixels
Display aspect ratio : 16:9
Frame rate mode : Variable
Frame rate : 29.970 (29970/1000) FPS
Minimum frame rate : 20.000 FPS
Maximum frame rate : 33.333 FPS
Original frame rate : 30.000 FPS
Standard : NTSC
Color space : YUV
Chroma subsampling : 4:2:0
Bit depth : 8 bits
Scan type : Progressive
Bits/(Pixel*Frame) : 0.089
Stream size : 3.09 GiB (93%)
Color range : Limited
Color primaries : BT.709
Transfer characteristics : BT.709
Matrix coefficients : BT.709
Codec configuration box : avcC

Dragon Gate Online

Audio
ID : 2
Format : AAC LC
Format/Info : Advanced Audio
Codec ID : mp4a-40-2
Duration : 2 h 59 min
Bit rate mode : Constant
Bit rate : 192 kb/s
Channel(s) : 2 channels
Channel layout : L R
Sampling rate : 48.0 kHz
Frame rate : 46.875 FPS (1024 SPF)
Compression mode : Lossy
Stream size : 244 MiB (7%)
Default : Yes
Alternate group : 1

Dragon Gate Online

Complete name : 2021.06.26.Dragon.Gate.Rainbow.Gate.Day.8.mp4
Format : MPEG-4
Format profile : Base Media
Codec ID : isom
File size : 3.34 GiB
Duration : 2 h 59 min
Overall bit rate mode : Variable
Overall bit rate : 2 658 kb/s

Video
ID : 1
Format : AVC
Format/Info : Advanced Video
Duration : 2 h 59 min
Bit rate mode : Variable
Bit rate : 2 461 kb/s
Maximum bit rate : 2 703 kb/s
Width : 1 280 pixels
Height : 720 pixels
Display aspect ratio : 16:9
Frame rate mode : Variable
Frame rate : 29.970 (29970/1000) FPS
Minimum frame rate : 20.000 FPS
Maximum frame rate : 33.333 FPS
Original frame rate : 30.000 FPS
Standard : NTSC
Color space : YUV
Chroma subsampling : 4:2:0
Bit depth : 8 bits
Scan type : Progressive
Bits/(Pixel*Frame) : 0.089
Stream size : 3.09 GiB (93%)
Color range : Limited
Color primaries : BT.709
Transfer characteristics : BT.709
Matrix coefficients : BT.709
Codec configuration box : avcC

Dragon Gate Online

Audio
ID : 2
Format : AAC LC
Format/Info : Advanced Audio
Codec ID : mp4a-40-2
Duration : 2 h 59 min
Bit rate mode : Constant
Bit rate : 192 kb/s
Channel(s) : 2 channels
Channel layout : L R
Sampling rate : 48.0 kHz
Frame rate : 46.875 FPS (1024 SPF)
Compression mode : Lossy
Stream size : 244 MiB (7%)
Default : Yes
Alternate group : 1

Dragon Gate Online

Complete name : 2021.06.26.Dragon.Gate.Rainbow.Gate.Day.8.mp4
Format : MPEG-4
Format profile : Base Media
Codec ID : isom
File size : 3.34 GiB
Duration : 2 h 59 min
Overall bit rate mode : Variable
Overall bit rate : 2 658 kb/s

Video
ID : 1
Format : AVC
Format/Info : Advanced Video
Duration : 2 h 59 min
Bit rate mode : Variable
Bit rate : 2 461 kb/s
Maximum bit rate : 2 703 kb/s
Width : 1 280 pixels
Height : 720 pixels
Display aspect ratio : 16:9
Frame rate mode : Variable
Frame rate : 29.970 (29970/1000) FPS
Minimum frame rate : 20.000 FPS
Maximum frame rate : 33.333 FPS
Original frame rate : 30.000 FPS
Standard : NTSC
Color space : YUV
Chroma subsampling : 4:2:0
Bit depth : 8 bits
Scan type : Progressive
Bits/(Pixel*Frame) : 0.089
Stream size : 3.09 GiB (93%)
Color range : Limited
Color primaries : BT.709
Transfer characteristics : BT.709
Matrix coefficients : BT.709
Codec configuration box : avcC

Dragon Gate Online

Audio
ID : 2
Format : AAC LC
Format/Info : Advanced Audio
Codec ID : mp4a-40-2
Duration : 2 h 59 min
Bit rate mode : Constant
Bit rate : 192 kb/s
Channel(s) : 2 channels
Channel layout : L R
Sampling rate : 48.0 kHz
Frame rate : 46.875 FPS (1024 SPF)
Compression mode : Lossy
Stream size : 244 MiB (7%)
Default : Yes
Alternate group : 1

Dragon Gate Online

Complete name : 2021.06.26.Dragon.Gate.Rainbow.Gate.Day.8.mp4
Format : MPEG-4
Format profile : Base Media
Codec ID : isom
File size : 3.34 GiB
Duration : 2 h 59 min
Overall bit rate mode : Variable
Overall bit rate : 2 658 kb/s

Video
ID : 1
Format : AVC
Format/Info : Advanced Video
Duration : 2 h 59 min
Bit rate mode : Variable
Bit rate : 2 461 kb/s
Maximum bit rate : 2 703 kb/s
Width : 1 280 pixels
Height : 720 pixels
Display aspect ratio : 16:9
Frame rate mode : Variable
Frame rate : 29.970 (29970/1000) FPS
Minimum frame rate : 20.000 FPS
Maximum frame rate : 33.333 FPS
Original frame rate : 30.000 FPS
Standard : NTSC
Color space : YUV
Chroma subsampling : 4:2:0
Bit depth : 8 bits
Scan type : Progressive
Bits/(Pixel*Frame) : 0.089
Stream size : 3.09 GiB (93%)
Color range : Limited
Color primaries : BT.709
Transfer characteristics : BT.709
Matrix coefficients : BT.709
Codec configuration box : avcC

Dragon Gate Online

Audio
ID : 2
Format : AAC LC
Format/Info : Advanced Audio
Codec ID : mp4a-40-2
Duration : 2 h 59 min
Bit rate mode : Constant
Bit rate : 192 kb/s
Channel(s) : 2 channels
Channel layout : L R
Sampling rate : 48.0 kHz
Frame rate : 46.875 FPS (1024 SPF)
Compression mode : Lossy
Stream size : 244 MiB (7%)
Default : Yes
Alternate group : 1

Dragon Gate Online

Complete name : 2021.06.26.Dragon.Gate.Rainbow.Gate.Day.8.mp4
Format : MPEG-4
Format profile : Base Media
Codec ID : isom
File size : 3.34 GiB
Duration : 2 h 59 min
Overall bit rate mode : Variable
Overall bit rate : 2 658 kb/s

Video
ID : 1
Format : AVC
Format/Info : Advanced Video
Duration : 2 h 59 min
Bit rate mode : Variable
Bit rate : 2 461 kb/s
Maximum bit rate : 2 703 kb/s
Width : 1 280 pixels
Height : 720 pixels
Display aspect ratio : 16:9
Frame rate mode : Variable
Frame rate : 29.970 (29970/1000) FPS
Minimum frame rate : 20.000 FPS
Maximum frame rate : 33.333 FPS
Original frame rate : 30.000 FPS
Standard : NTSC
Color space : YUV
Chroma subsampling : 4:2:0
Bit depth : 8 bits
Scan type : Progressive
Bits/(Pixel*Frame) : 0.089
Stream size : 3.09 GiB (93%)
Color range : Limited
Color primaries : BT.709
Transfer characteristics : BT.709
Matrix coefficients : BT.709
Codec configuration box : avcC

Dragon Gate Online

Audio
ID : 2
Format : AAC LC
Format/Info : Advanced Audio
Codec ID : mp4a-40-2
Duration : 2 h 59 min
Bit rate mode : Constant
Bit rate : 192 kb/s
Channel(s) : 2 channels
Channel layout : L R
Sampling rate : 48.0 kHz
Frame rate : 46.875 FPS (1024 SPF)
Compression mode : Lossy
Stream size : 244 MiB (7%)
Default : Yes
Alternate group : 1

Dragon Gate Online

Complete name : 2021.06.26.Dragon.Gate.Rainbow.Gate.Day.8.mp4
Format : MPEG-4
Format profile : Base Media
Codec ID : isom
File size : 3.34 GiB
Duration : 2 h 59 min
Overall bit rate mode : Variable
Overall bit rate : 2 658 kb/s

Video
ID : 1
Format : AVC
Format/Info : Advanced Video
Duration : 2 h 59 min
Bit rate mode : Variable
Bit rate : 2 461 kb/s
Maximum bit rate : 2 703 kb/s
Width : 1 280 pixels
Height : 720 pixels
Display aspect ratio : 16:9
Frame rate mode : Variable
Frame rate : 29.970 (29970/1000) FPS
Minimum frame rate : 20.000 FPS
Maximum frame rate : 33.333 FPS
Original frame rate : 30.000 FPS
Standard : NTSC
Color space : YUV
Chroma subsampling : 4:2:0
Bit depth : 8 bits
Scan type : Progressive
Bits/(Pixel*Frame) : 0.089
Stream size : 3.09 GiB (93%)
Color range : Limited
Color primaries : BT.709
Transfer characteristics : BT.709
Matrix coefficients : BT.709
Codec configuration box : avcC

Dragon Gate Online

Audio
ID : 2
Format : AAC LC
Format/Info : Advanced Audio
Codec ID : mp4a-40-2
Duration : 2 h 59 min
Bit rate mode : Constant
Bit rate : 192 kb/s
Channel(s) : 2 channels
Channel layout : L R
Sampling rate : 48.0 kHz
Frame rate : 46.875 FPS (1024 SPF)
Compression mode : Lossy
Stream size : 244 MiB (7%)
Default : Yes
Alternate group : 1

Dragon Gate Online

Complete name : 2021.06.26.Dragon.Gate.Rainbow.Gate.Day.8.mp4
Format : MPEG-4
Format profile : Base Media
Codec ID : isom
File size : 3.34 GiB
Duration : 2 h 59 min
Overall bit rate mode : Variable
Overall bit rate : 2 658 kb/s

Video
ID : 1
Format : AVC
Format/Info : Advanced Video
Duration : 2 h 59 min
Bit rate mode : Variable
Bit rate : 2 461 kb/s
Maximum bit rate : 2 703 kb/s
Width : 1 280 pixels
Height : 720 pixels
Display aspect ratio : 16:9
Frame rate mode : Variable
Frame rate : 29.970 (29970/1000) FPS
Minimum frame rate : 20.000 FPS
Maximum frame rate : 33.333 FPS
Original frame rate : 30.000 FPS
Standard : NTSC
Color space : YUV
Chroma subsampling : 4:2:0
Bit depth : 8 bits
Scan type : Progressive
Bits/(Pixel*Frame) : 0.089
Stream size : 3.09 GiB (93%)
Color range : Limited
Color primaries : BT.709
Transfer characteristics : BT.709
Matrix coefficients : BT.709
Codec configuration box : avcC

Dragon Gate Online

Audio
ID : 2
Format : AAC LC
Format/Info : Advanced Audio
Codec ID : mp4a-40-2
Duration : 2 h 59 min
Bit rate mode : Constant
Bit rate : 192 kb/s
Channel(s) : 2 channels
Channel layout : L R
Sampling rate : 48.0 kHz
Frame rate : 46.875 FPS (1024 SPF)
Compression mode : Lossy
Stream size : 244 MiB (7%)
Default : Yes
Alternate group : 1

Dragon Gate Online

Complete name : 2021.06.26.Dragon.Gate.Rainbow.Gate.Day.8.mp4
Format : MPEG-4
Format profile : Base Media
Codec ID : isom
File size : 3.34 GiB
Duration : 2 h 59 min
Overall bit rate mode : Variable
Overall bit rate : 2 658 kb/s

Video
ID : 1
Format : AVC
Format/Info : Advanced Video
Duration : 2 h 59 min
Bit rate mode : Variable
Bit rate : 2 461 kb/s
Maximum bit rate : 2 703 kb/s
Width : 1 280 pixels
Height : 720 pixels
Display aspect ratio : 16:9
Frame rate mode : Variable
Frame rate : 29.970 (29970/1000) FPS
Minimum frame rate : 20.000 FPS
Maximum frame rate : 33.333 FPS
Original frame rate : 30.000 FPS
Standard : NTSC
Color space : YUV
Chroma subsampling : 4:2:0
Bit depth : 8 bits
Scan type : Progressive
Bits/(Pixel*Frame) : 0.089
Stream size : 3.09 GiB (93%)
Color range : Limited
Color primaries : BT.709
Transfer characteristics : BT.709
Matrix coefficients : BT.709
Codec configuration box : avcC

Dragon Gate Online

Audio
ID : 2
Format : AAC LC
Format/Info : Advanced Audio
Codec ID : mp4a-40-2
Duration : 2 h 59 min
Bit rate mode : Constant
Bit rate : 192 kb/s
Channel(s) : 2 channels
Channel layout : L R
Sampling rate : 48.0 kHz
Frame rate : 46.875 FPS (1024 SPF)
Compression mode : Lossy
Stream size : 244 MiB (7%)
Default : Yes
Alternate group : 1

Dragon Gate Online

Complete name : 2021.06.26.Dragon.Gate.Rainbow.Gate.Day.8.mp4
Format : MPEG-4
Format profile : Base Media
Codec ID : isom
File size : 3.34 GiB
Duration : 2 h 59 min
Overall bit rate mode : Variable
Overall bit rate : 2 658 kb/s

Video
ID : 1
Format : AVC
Format/Info : Advanced Video
Duration : 2 h 59 min
Bit rate mode : Variable
Bit rate : 2 461 kb/s
Maximum bit rate : 2 703 kb/s
Width : 1 280 pixels
Height : 720 pixels
Display aspect ratio : 16:9
Frame rate mode : Variable
Frame rate : 29.970 (29970/1000) FPS
Minimum frame rate : 20.000 FPS
Maximum frame rate : 33.333 FPS
Original frame rate : 30.000 FPS
Standard : NTSC
Color space : YUV
Chroma subsampling : 4:2:0
Bit depth : 8 bits
Scan type : Progressive
Bits/(Pixel*Frame) : 0.089
Stream size : 3.09 GiB (93%)
Color range : Limited
Color primaries : BT.709
Transfer characteristics : BT.709
Matrix coefficients : BT.709
Codec configuration box : avcC

Dragon Gate Online

Audio
ID : 2
Format : AAC LC
Format/Info : Advanced Audio
Codec ID : mp4a-40-2
Duration : 2 h 59 min
Bit rate mode : Constant
Bit rate : 192 kb/s
Channel(s) : 2 channels
Channel layout : L R
Sampling rate : 48.0 kHz
Frame rate : 46.875 FPS (1024 SPF)
Compression mode : Lossy
Stream size : 244 MiB (7%)
Default : Yes
Alternate group : 1

Dragon Gate Online

 

[collapse]

 

 

https://dx-tv.com/

Leave a Reply

Your email address will not be published. Required fields are marked *

This site uses Akismet to reduce spam. Learn how your comment data is processed.

Previous Post
AJPW

AJPW Champions Night 2021 06 26 Online Free

Next Post
Cage Warriors 125

Cage Warriors 125 Free Online Replay 720p